Browse Collections Artists Sources   Search Dates

Add Show    List Management    Help


Phish 05/27/11
Bethel Woods Center for the Arts, Bethel, NY
Comments Add Comment    Source Collectors    Add to Collection    Add to Want List    History
Source # 114406 Other Sources
Entered by Jason Sobel
Checksums 16bit-FFP , 24bit-FFP
Disc Counts 2 / 3
Media Size
Date Circulated
Date Added
07/03/2011
07/03/2011
Source Summary flac16 & flac24; Schoeps MK4 > KC5 > CMC6 > Fostex FR2LE Oade Mod.(24bit/48khz); CF Card > USB > Macbook Pro > Wave Editor (tracking, fades, resample/dither to 16bit/44.1 khz) > XACT > FLAC (Level 8); Taped by Dave Flaschner; Transferred by Andy Murray (NOTE: both 16 bit & 24 bit versions are available) 
Source Information - Download Text | Download Zip
-=-=-=-=-=-=-=-=-=-=-=-=-=-=-=-=-=-=-=-=-=-
-=-=-    16 bit / 44.1 kHz version    -=-=-
-=-=-=-=-=-=-=-=-=-=-=-=-=-=-=-=-=-=-=-=-=-

Phish
2011-05-27
Bethel Woods Center For The Arts
Bethel, NY

Mics were in OTS DINa

Schoeps MK4>KC5>CMC6>Fostex FR2LE Oade Mod.(24bit/48khz)

CF Card>USB>Macbook Pro>Wave Editor(tracking,fades,resample(izotope)/dither(mbit+) to 16bit/44.1 khz)>XACT(FLAC 8,ffp,fix sbe)

Recorded by Dave Flaschner

Transferred and seeded by Andy Murray

3 Discs
2 Sets

Disc 1:
Set 1:
01. Intro
02. Tweezer>
03. My Friend, My Friend
04. Poor Heart
05. Roses Are Free
06. Funky Bitch
07. Wolfman's Brother>
08. Walk Away
09. Stash
10. Bouncing Around the Room
11. Kill Devil Falls

Disc 2:
Set 1 continued…
01. Bold as Love

Set 2:
02. Intro
03. Carini>
04. Back on the Train
05. Boogie On Reggae Woman>
06. Waves>
07. Prince Caspian>

Disc 3:
Set 2 continued…
01. Crosseyed and Painless>
02. Wading in the Velvet Sea>
03. Possum
04. The Squirming Coil

Encore:
05. Julius

length expanded size cdr WAVE problems fmt ratio filename
0:35.30 6244604 B --- -- ----- ph2011-05-27_mk4_1644_d1t01.wav
9:07.71 96657836 B --- -- ----- ph2011-05-27_mk4_1644_d1t02.wav
6:02.46 63965036 B --- -- ----- ph2011-05-27_mk4_1644_d1t03.wav
3:03.04 32290652 B --- -- ----- ph2011-05-27_mk4_1644_d1t04.wav
5:21.27 56687948 B --- -- ----- ph2011-05-27_mk4_1644_d1t05.wav
6:03.54 64160252 B --- -- ----- ph2011-05-27_mk4_1644_d1t06.wav
8:36.00 91022444 B --- -- ----- ph2011-05-27_mk4_1644_d1t07.wav
9:27.35 100101164 B --- -- ----- ph2011-05-27_mk4_1644_d1t08.wav
11:10.62 118333868 B --- -- ----- ph2011-05-27_mk4_1644_d1t09.wav
3:57.27 41870348 B --- -- ----- ph2011-05-27_mk4_1644_d1t10.wav
13:02.42 138043628 B --- -- ----- ph2011-05-27_mk4_1644_d1t11.wav
6:07.69 64901132 B --- -- ----- ph2011-05-27_mk4_1644_d2t01.wav
0:32.40 5738924 B --- -- ----- ph2011-05-27_mk4_1644_d2t02.wav
6:57.00 73558844 B --- -- ----- ph2011-05-27_mk4_1644_d2t03.wav
9:18.37 98518268 B --- -- ----- ph2011-05-27_mk4_1644_d2t04.wav
8:53.13 94051820 B --- -- ----- ph2011-05-27_mk4_1644_d2t05.wav
14:01.63 148500620 B --- -- ----- ph2011-05-27_mk4_1644_d2t06.wav
7:35.25 80320844 B --- -- ----- ph2011-05-27_mk4_1644_d2t07.wav
11:52.09 125618012 B --- -- ----- ph2011-05-27_mk4_1644_d3t01.wav
7:44.44 81953132 B --- -- ----- ph2011-05-27_mk4_1644_d3t02.wav
8:58.01 94905596 B --- -- ----- ph2011-05-27_mk4_1644_d3t03.wav
11:49.05 125079404 B --- -- ----- ph2011-05-27_mk4_1644_d3t04.wav
8:51.05 93680204 B --- -- ----- ph2011-05-27_mk4_1644_d3t05.wav
179:09.34 1896204580 B 1.0000 (23 files)









-=-=-=-=-=-=-=-=-=-=-=-=-=-=-=-=-=-=-=-=-
-=-=-    24 bit / 48 kHz version    -=-=-
-=-=-=-=-=-=-=-=-=-=-=-=-=-=-=-=-=-=-=-=-

Phish
2011-05-27
Bethel Woods Center For The Arts
Bethel, NY

Mics were in OTS DINa

Schoeps MK4>KC5>CMC6>Fostex FR2LE Oade Mod.(24bit/48khz)

CF Card>USB>Macbook Pro>Wave Editor(tracking,fades)>XACT(FLAC 8,ffp)

Recorded by Dave Flaschner

Transferred and seeded by Andy Murray

2 Discs
2 Sets

Disc 1:
Set 1:
01. Intro
02. Tweezer>
03. My Friend, My Friend
04. Poor Heart
05. Roses Are Free
06. Funky Bitch
07. Wolfman's Brother>
08. Walk Away
09. Stash
10. Bouncing Around the Room
11. Kill Devil Falls
12. Bold as Love

Disc 2:
Set 2:
01. Intro
02. Carini>
03. Back on the Train
04. Boogie On Reggae Woman>
05. Waves>
06. Prince Caspian>
07. Crosseyed and Painless>
08. Wading in the Velvet Sea>
09. Possum
10. The Squirming Coil

Encore:
11. Julius
Show Checksums
16bit-FFP
ph2011-05-27_mk4_1644_d1t01.flac:c2a960cdf03f0720f90d7ad35ffceff4
ph2011-05-27_mk4_1644_d1t02.flac:414cefb83c1f695eccd7067ce9c12d9b
ph2011-05-27_mk4_1644_d1t03.flac:5a515f3711a07b23edd7d9b547b0f38d
ph2011-05-27_mk4_1644_d1t04.flac:71c41efc9976efb94b93f66e005e6723
ph2011-05-27_mk4_1644_d1t05.flac:d15f91dd2611965276293aab7098f097
ph2011-05-27_mk4_1644_d1t06.flac:c8357ea04849f39fc79396ba3b6734de
ph2011-05-27_mk4_1644_d1t07.flac:2a41f4f213e9e3358c8f2d8e729da77c
ph2011-05-27_mk4_1644_d1t08.flac:9569b893b2dfcab5f245c5eac26f4ace
ph2011-05-27_mk4_1644_d1t09.flac:4c011fb33789c3c406addbf6cd75c5d3
ph2011-05-27_mk4_1644_d1t10.flac:d84f4109cd5744b489fc90c051b9f013
ph2011-05-27_mk4_1644_d1t11.flac:8ed000e1ef6c39c978c43c6ab3f02897
ph2011-05-27_mk4_1644_d2t01.flac:f94dcbf3dfd7d77ff9f46dcf782932f8
ph2011-05-27_mk4_1644_d2t02.flac:5fb84c58b68c9d4c8853fc375cf32202
ph2011-05-27_mk4_1644_d2t03.flac:1e33bbbc8f398f921987ca1559548371
ph2011-05-27_mk4_1644_d2t04.flac:350083be0be80ade5c607205d8a34bc0
ph2011-05-27_mk4_1644_d2t05.flac:aafe65d45fb7ff21d7ac0aafdf6e568a
ph2011-05-27_mk4_1644_d2t06.flac:cf2b53f5ce8163ccf9895c83795c5b25
ph2011-05-27_mk4_1644_d2t07.flac:039d07088bdd1307f11e7e07e7800d97
ph2011-05-27_mk4_1644_d3t01.flac:ea8d82e6681799b366f9b34bf11cb01f
ph2011-05-27_mk4_1644_d3t02.flac:c9dcc9431c0d863587d0b5ff1d93cf8c
ph2011-05-27_mk4_1644_d3t03.flac:0699088ed133512cbd8c3f07599131fc
ph2011-05-27_mk4_1644_d3t04.flac:c0f2d2a61a826db83054a078062c6a1d
ph2011-05-27_mk4_1644_d3t05.flac:8f43109bc3d08afec27d8b6cc6315c2a
24bit-FFP
ph2011-05-27_mk4_2448_d1t01.flac:2e1525c69d230941634959080cebb7d6
ph2011-05-27_mk4_2448_d1t02.flac:a02d1c666767c12309142b81d1591ac0
ph2011-05-27_mk4_2448_d1t03.flac:3872b50d8be6ca1771bfefa9824551e3
ph2011-05-27_mk4_2448_d1t04.flac:0cba77d12d052c585cfe42383265c6c5
ph2011-05-27_mk4_2448_d1t05.flac:41e4e9441b4fa6cacbb87c3e0debc435
ph2011-05-27_mk4_2448_d1t06.flac:7525189ef9fc0962f48e1217c4732b68
ph2011-05-27_mk4_2448_d1t07.flac:148ad6149e700c904de9ae1facd43636
ph2011-05-27_mk4_2448_d1t08.flac:1f0b217c07bf279bf76e08df9373cf26
ph2011-05-27_mk4_2448_d1t09.flac:7917298065b9355db8eb69aa2a0a2b63
ph2011-05-27_mk4_2448_d1t10.flac:a0516dcab1024709b3a97d6d7c835562
ph2011-05-27_mk4_2448_d1t11.flac:8b33ca04325801ea7ef2e898118bd4ac
ph2011-05-27_mk4_2448_d1t12.flac:88a08a60208c64db4fee495dd0359349
ph2011-05-27_mk4_2448_d2t01.flac:36cf1cb77521f62897b156ee3de7b427
ph2011-05-27_mk4_2448_d2t02.flac:17095863e086c3a54375726be7c61988
ph2011-05-27_mk4_2448_d2t03.flac:9b539a85a91db5712b9c4272f80f64cf
ph2011-05-27_mk4_2448_d2t04.flac:6050bc682c7f6517fbd7ea2aed0f86ef
ph2011-05-27_mk4_2448_d2t05.flac:4ef263e60c39ca113be704140db6e3f8
ph2011-05-27_mk4_2448_d2t06.flac:1cc7201c9d5c23847be85bd6f71fde3d
ph2011-05-27_mk4_2448_d2t07.flac:3dd13f57d700bf1b77a2ac1c650d976c
ph2011-05-27_mk4_2448_d2t08.flac:ea14ed573813608f3be8701aa25cfd61
ph2011-05-27_mk4_2448_d2t09.flac:0ddcf6a1f6ba4558e754d57fac08715f
ph2011-05-27_mk4_2448_d2t10.flac:379cfd7606ca1a4243c42e300018d2b5
ph2011-05-27_mk4_2448_d2t11.flac:edbdfba870b56f358f5152fe70df30a3

Comments
Add Comment
Other Sources (comments)
flac16; Schoeps mk4v... (1) flac16 &... (0) flac16; Nakamichi... (0) flac16; set 1 =... (0) flac16; Schoeps... (1) flac16; Neumann... (0) flac16; Schoeps mk5... (0) flac24; Schoeps mk5... (0)
Date User Comment