Browse Collections Artists Sources   Search Dates

Add Show    List Management    Help


Phish 05/28/11
Bethel Woods Center for the Arts, Bethel, NY
Comments Add Comment    Source Collectors    Add to Collection    Add to Want List    History
Source # 114407 Other Sources
Entered by Jason Sobel
Checksums 16bit-FFP , 24bit-FFP
Disc Counts 2 / 3
Media Size
Date Circulated
Date Added
07/03/2011
07/03/2011
Source Summary flac16 & flac24; Schoeps MK4 > KC5 > CMC6 > Fostex FR2LE Oade Mod.(24bit/48khz); CF Card > USB > Macbook Pro > Wave Editor (tracking, fades, resample/dither to 16bit/44.1 khz) > XACT > FLAC (Level 8); Taped by Dave Flaschner; Transferred by Andy Murray (NOTE: both 16 bit & 24 bit versions are available) 
Source Information - Download Text | Download Zip
-=-=-=-=-=-=-=-=-=-=-=-=-=-=-=-=-=-=-=-=-=-
-=-=-    16 bit / 44.1 kHz version    -=-=-
-=-=-=-=-=-=-=-=-=-=-=-=-=-=-=-=-=-=-=-=-=-

Phish
2011-05-28
Bethel Woods Center For The Arts
Bethel, NY

Mics were in OTS DINa

Schoeps MK4>KC5>CMC6>Fostex FR2LE Oade Mod.(24bit/48khz)

CF Card>USB>Macbook Pro>Wave Editor(tracking,fades,resample(izotope)/dither(mbit+) to 16bit/44.1 khz)>XACT(FLAC 8,ffp,fix sbe)

Recorded by Dave Flaschner

Transferred and seeded by Andy Murray

3 Discs
2 Sets

Disc 1:
Set 1:
01. Intro
02. Theme From the Bottom
03. NICU
04. Cities
05. Halley's Comet>
06. Runaway Jim
07. Gumbo
08. Quinn The Eskimo (The Mighty Quinn)
09. Limb by Limb
10. Horn

Disc 2:
Set 1 continued…
01. Bathtub Gin

Set 2:
02. Intro
03. Down with Disease>
04. Free>
05. Backwards Down the Number Line
06. Makisupa Policeman>
07. Harry Hood

Disc 3:
Set 2 continued…
01. Cavern
02. David Bowie

Encore
03. A Day in the Life

length expanded size cdr WAVE problems fmt ratio filename
0:57.08 10073660 B --- -- ----- ph2011-05-28_mk4_1644_d1t01.wav
8:56.19 94595132 B --- -- ----- ph2011-05-28_mk4_1644_d1t02.wav
5:24.09 57174812 B --- -- ----- ph2011-05-28_mk4_1644_d1t03.wav
9:02.26 95669996 B --- -- ----- ph2011-05-28_mk4_1644_d1t04.wav
11:57.60 126619964 B --- -- ----- ph2011-05-28_mk4_1644_d1t05.wav
8:42.56 92212556 B --- -- ----- ph2011-05-28_mk4_1644_d1t06.wav
4:40.53 49516700 B --- -- ----- ph2011-05-28_mk4_1644_d1t07.wav
6:10.56 65399756 B --- -- ----- ph2011-05-28_mk4_1644_d1t08.wav
8:22.50 88670444 B --- -- ----- ph2011-05-28_mk4_1644_d1t09.wav
3:53.38 41190620 B --- -- ----- ph2011-05-28_mk4_1644_d1t10.wav
15:20.16 162325676 B --- -- ----- ph2011-05-28_mk4_1644_d2t01.wav
1:09.19 12216332 B --- -- ----- ph2011-05-28_mk4_1644_d2t02.wav
14:31.03 153651500 B --- -- ----- ph2011-05-28_mk4_1644_d2t03.wav
7:37.41 80711276 B --- -- ----- ph2011-05-28_mk4_1644_d2t04.wav
12:09.04 128605052 B --- -- ----- ph2011-05-28_mk4_1644_d2t05.wav
7:33.69 80071532 B --- -- ----- ph2011-05-28_mk4_1644_d2t06.wav
12:37.54 133661852 B --- -- ----- ph2011-05-28_mk4_1644_d2t07.wav
4:33.36 48241916 B --- -- ----- ph2011-05-28_mk4_1644_d3t01.wav
14:46.46 156398636 B --- -- ----- ph2011-05-28_mk4_1644_d3t02.wav
5:36.60 59411564 B --- -- ----- ph2011-05-28_mk4_1644_d3t03.wav
164:03.48 1736418976 B 1.0000 (20 files)









-=-=-=-=-=-=-=-=-=-=-=-=-=-=-=-=-=-=-=-=-
-=-=-    24 bit / 48 kHz version    -=-=-
-=-=-=-=-=-=-=-=-=-=-=-=-=-=-=-=-=-=-=-=-

Phish
2011-05-28
Bethel Woods Center For The Arts
Bethel, NY

Mics were in OTS DINa

Schoeps MK4>KC5>CMC6>Fostex FR2LE Oade Mod.(24bit/48khz)

CF Card>USB>Macbook Pro>Wave Editor(tracking,fades)>XACT(FLAC 8,ffp)

Recorded by Dave Flaschner

Transferred and seeded by Andy Murray

2 Discs
2 Sets

Disc 1:
Set 1:
01. Intro
02. Theme From the Bottom
03. NICU
04. Cities
05. Halley's Comet>
06. Runaway Jim
07. Gumbo
08. Quinn The Eskimo (The Mighty Quinn)
09. Limb by Limb
10. Horn
11. Bathtub Gin

Disc 2:
Set 2:
01. Intro
02. Down with Disease>
03. Free>
04. Backwards Down the Number Line
05. Makisupa Policeman>
06. Harry Hood
07. Cavern
08. David Bowie

Encore
09. A Day in the Life
Show Checksums
16bit-FFP
ph2011-05-28_mk4_1644_d1t01.flac:52e27bd79f4b9bc0b6a5da2421741ca2
ph2011-05-28_mk4_1644_d1t02.flac:54e5bd1f1cfa0ab65def136fe8bf09a3
ph2011-05-28_mk4_1644_d1t03.flac:4c6431920b399049755aebf3a936f3a6
ph2011-05-28_mk4_1644_d1t04.flac:f9eb7d697289a5644f153e933e7cf7f3
ph2011-05-28_mk4_1644_d1t05.flac:1388c010c5fc127379bd09d9a71461d7
ph2011-05-28_mk4_1644_d1t06.flac:010a8aae6d946692fe717efef8ffa74a
ph2011-05-28_mk4_1644_d1t07.flac:e81ffc4f6ce8985008ee777d505da9aa
ph2011-05-28_mk4_1644_d1t08.flac:9d3c4a64604231d3b47ed0b5b6bf9fc3
ph2011-05-28_mk4_1644_d1t09.flac:4cc6c4dacb16502f75a19b986a30db1e
ph2011-05-28_mk4_1644_d1t10.flac:2e963e81e5ea4a4a564417337944e5b7
ph2011-05-28_mk4_1644_d2t01.flac:e85aeb86c469350b570bbca9824417e6
ph2011-05-28_mk4_1644_d2t02.flac:f86479bc0ebe92ab0d523a739d3801d0
ph2011-05-28_mk4_1644_d2t03.flac:3c3260c6ccfe6dd70e75f870b032e6a6
ph2011-05-28_mk4_1644_d2t04.flac:534a50e608e83da34df9373893a3e738
ph2011-05-28_mk4_1644_d2t05.flac:5ea09480d33ac9556c9464e2c5c4bf5c
ph2011-05-28_mk4_1644_d2t06.flac:daafe5921d9987cfb146e6da40347173
ph2011-05-28_mk4_1644_d2t07.flac:8d604759e796be3eceb95fd26963cbcc
ph2011-05-28_mk4_1644_d3t01.flac:7d3d7f4682946d91cbc19a54361f5a2a
ph2011-05-28_mk4_1644_d3t02.flac:86cc0dd3ed707ccee8c7682b4c146e85
ph2011-05-28_mk4_1644_d3t03.flac:d97f45b1e9b7d867df84b119b9a21516
24bit-FFP
ph2011-05-28_mk4_2448_d1t01.flac:fcfbea1926d6bdaa5b61af541e0e3266
ph2011-05-28_mk4_2448_d1t02.flac:e810c16f9f35355504e7fa4743e9db97
ph2011-05-28_mk4_2448_d1t03.flac:f5e3e7fed90b96928bdc0fbd0cfad87a
ph2011-05-28_mk4_2448_d1t04.flac:8e672768bb7da09769f651042e41e82f
ph2011-05-28_mk4_2448_d1t05.flac:d7b8dbf6075e926a7afa780cedf3c86e
ph2011-05-28_mk4_2448_d1t06.flac:204d8cd7b860148dd3d3265600ae9942
ph2011-05-28_mk4_2448_d1t07.flac:7985ca42e9140ce335a94ae19930645d
ph2011-05-28_mk4_2448_d1t08.flac:5843cbf5cdc6ba144824cb6a459bb4a1
ph2011-05-28_mk4_2448_d1t09.flac:60fa29fdebd660386e798e437d8e3c38
ph2011-05-28_mk4_2448_d1t10.flac:a0128170d993114fe317ca95bf51b75a
ph2011-05-28_mk4_2448_d1t11.flac:434411e4ed20554fd93f59be92af68d7
ph2011-05-28_mk4_2448_d2t01.flac:8e7e71eabff410a06f86bb7314771ac9
ph2011-05-28_mk4_2448_d2t02.flac:aa60a051b6f28a853905c9a86dbc75b1
ph2011-05-28_mk4_2448_d2t03.flac:968b79fc1b746ec976a402756eb63bb5
ph2011-05-28_mk4_2448_d2t04.flac:e5e6cb23c8b5fa050292e96106cc5563
ph2011-05-28_mk4_2448_d2t05.flac:97193c5305d5c06d0d24d720f1df6d71
ph2011-05-28_mk4_2448_d2t06.flac:c306a8c148146666e21906e03f4b0195
ph2011-05-28_mk4_2448_d2t07.flac:4837d6bdafbe3a2747e2021b206bc6c9
ph2011-05-28_mk4_2448_d2t08.flac:e3f6adf7d97293f77c591b9f3af98166
ph2011-05-28_mk4_2448_d2t09.flac:fc123f6cbdff4f1c16920bd61d03bfe2

Comments
Add Comment
Other Sources (comments)
flac16 &... (0) flac16; Neumann... (0) flac16; Schoeps MK41... (0) flac16; Schoeps CCM4... (0) flac16; Nakamichi... (0) flac24; Neumann... (0) flac16; Schoeps... (0) flac16; set 1 only;... (0) flac16; Neumann... (0) flac16; Schoeps mk5... (0) flac24; Schoeps mk5... (0)
Date User Comment