Browse Collections Artists Sources   Search Dates

Add Show    List Management    Help


Phish 05/29/11
Bethel Woods Center for the Arts, Bethel, NY
Comments Add Comment    Source Collectors    Add to Collection    Add to Want List    History
Source # 114408 Other Sources
Entered by Jason Sobel
Checksums 16bit-FFP , 24bit-FFP
Disc Counts 2 / 3
Media Size
Date Circulated
Date Added
07/03/2011
07/03/2011
Source Summary flac16 & flac24; Schoeps MK4 > KC5 > CMC6 > Fostex FR2LE Oade Mod.(24bit/48khz); CF Card > USB > Macbook Pro > Wave Editor (tracking, fades, resample/dither to 16bit/44.1 khz) > XACT > FLAC (Level 8); Taped by Dave Flaschner; Transferred by Andy Murray (NOTE: both 16 bit & 24 bit versions are available) 
Source Information - Download Text | Download Zip
-=-=-=-=-=-=-=-=-=-=-=-=-=-=-=-=-=-=-=-=-=-
-=-=-    16 bit / 44.1 kHz version    -=-=-
-=-=-=-=-=-=-=-=-=-=-=-=-=-=-=-=-=-=-=-=-=-

Phish
2011-05-29
Bethel Woods Center For The Arts
Bethel, NY

Mics were in OTS DINa

Schoeps MK4>KC5>CMC6>Fostex FR2LE Oade Mod.(24bit/48khz)

CF Card>USB>Macbook Pro>Wave Editor(tracking,fades,resample(izotope)/dither(mbit+) to 16bit/44.1 khz)>XACT(FLAC 8,ffp,fix sbe)

Recorded by Dave Flaschner

Transferred and seeded by Andy Murray

3 Discs
2 Sets

Disc 1:
Set 1:
01. Intro
02. AC/DC Bag
03. Sample in a Jar
04. Rift
05. Ocelot
06. Ya Mar
07. Timber
08. The Oh Kee Pa Ceremony>
09. Suzy Greenberg>
10. 46 Days>
11. Twenty Years Later
12. The Ballad of Curtis Loew

Disc 2:
Set 1 continued…
01. Run Like an Antelope

Set 2:
02. Intro
03. Mike's Song>
04. Simple>
05. Weekapaug Groove
06. Meatstick>
07. Fluffhead
08. Joy

Disc 3:
Set 2 continued…
01. Also Sprach Zarathustra>
02. Light>
03. Slave to the Traffic Light

Encore
04. Loving Cup
05. Tweezer Reprise

length expanded size cdr WAVE problems fmt ratio filename
1:37.02 17115548 B --- -- ----- ph2011-05-29_mk4_1644_d1t01.wav
6:59.01 73913996 B --- -- ----- ph2011-05-29_mk4_1644_d1t02.wav
5:00.21 52969436 B --- -- ----- ph2011-05-29_mk4_1644_d1t03.wav
6:41.30 70807004 B --- -- ----- ph2011-05-29_mk4_1644_d1t04.wav
9:25.58 99802460 B --- -- ----- ph2011-05-29_mk4_1644_d1t05.wav
7:30.13 79410620 B --- -- ----- ph2011-05-29_mk4_1644_d1t06.wav
6:45.50 71559644 B --- -- ----- ph2011-05-29_mk4_1644_d1t07.wav
1:46.26 18759596 B --- -- ----- ph2011-05-29_mk4_1644_d1t08.wav
6:23.36 67645916 B --- -- ----- ph2011-05-29_mk4_1644_d1t09.wav
8:07.39 85998572 B --- -- ----- ph2011-05-29_mk4_1644_d1t10.wav
7:49.41 82828076 B --- -- ----- ph2011-05-29_mk4_1644_d1t11.wav
5:02.41 53369276 B --- -- ----- ph2011-05-29_mk4_1644_d1t12.wav
10:48.26 114368396 B --- -- ----- ph2011-05-29_mk4_1644_d2t01.wav
0:27.03 4769900 B --- -- ----- ph2011-05-29_mk4_1644_d2t02.wav
9:11.49 97311692 B --- -- ----- ph2011-05-29_mk4_1644_d2t03.wav
10:59.67 116405228 B --- -- ----- ph2011-05-29_mk4_1644_d2t04.wav
5:09.17 54547628 B --- -- ----- ph2011-05-29_mk4_1644_d2t05.wav
6:47.09 71816012 B --- -- ----- ph2011-05-29_mk4_1644_d2t06.wav
14:31.18 153686780 B --- -- ----- ph2011-05-29_mk4_1644_d2t07.wav
5:39.21 59849036 B --- -- ----- ph2011-05-29_mk4_1644_d2t08.wav
7:17.42 77185628 B --- -- ----- ph2011-05-29_mk4_1644_d3t01.wav
9:25.55 99795404 B --- -- ----- ph2011-05-29_mk4_1644_d3t02.wav
13:23.27 141712748 B --- -- ----- ph2011-05-29_mk4_1644_d3t03.wav
5:25.46 57438236 B --- -- ----- ph2011-05-29_mk4_1644_d3t04.wav
4:38.17 49079228 B --- -- ----- ph2011-05-29_mk4_1644_d3t05.wav
176:53.05 1872146060 B 1.0000 (25 files)







-=-=-=-=-=-=-=-=-=-=-=-=-=-=-=-=-=-=-=-=-
-=-=-    24 bit / 48 kHz version    -=-=-
-=-=-=-=-=-=-=-=-=-=-=-=-=-=-=-=-=-=-=-=-

Phish
2011-05-29
Bethel Woods Center For The Arts
Bethel, NY

Mics were in OTS DINa

Schoeps MK4>KC5>CMC6>Fostex FR2LE Oade Mod.(24bit/48khz)

CF Card>USB>Macbook Pro>Wave Editor(tracking,fades)>XACT(FLAC 8,ffp)

Recorded by Dave Flaschner

Transferred and seeded by Andy Murray

2 Discs
2 Sets

Disc 1:
Set 1:
01. Intro
02. AC/DC Bag
03. Sample in a Jar
04. Rift
05. Ocelot
06. Ya Mar
07. Timber
08. The Oh Kee Pa Ceremony>
09. Suzy Greenberg>
10. 46 Days>
11. Twenty Years Later
12. The Ballad of Curtis Loew
13. Run Like an Antelope

Disc 2:
Set 2:

01.Intro
02 Mike's Song>
03 Simple>
04 Weekapaug Groove
05 Meatstick>
06 Fluffhead
07 Joy
08. Also Sprach Zarathustra>
09. Light>
10. Slave to the Traffic Light

Encore
11. Loving Cup
12. Tweezer Reprise
Show Checksums
16bit-FFP
ph2011-05-29_mk4_1644_d1t01.flac:ac2140bda3949e3dcde015706aa74dcd
ph2011-05-29_mk4_1644_d1t02.flac:bdf8c0136dbaa20930eaadd8760bc067
ph2011-05-29_mk4_1644_d1t03.flac:71d4206efd7bf24f70682ab6db2d82a0
ph2011-05-29_mk4_1644_d1t04.flac:5d61d6aa71575ca79b1db644f03ebb75
ph2011-05-29_mk4_1644_d1t05.flac:af72ddbb6926f729bab66f1e310e2d7b
ph2011-05-29_mk4_1644_d1t06.flac:2d4809cceccff0c8ded607f5f2f7b3b8
ph2011-05-29_mk4_1644_d1t07.flac:666ac85b7d9d1366c51fe5a03a50d1eb
ph2011-05-29_mk4_1644_d1t08.flac:93d8845ffce8fb1e39ce7fb03209ec56
ph2011-05-29_mk4_1644_d1t09.flac:b97fc29d5c6cde90935bee8b4e7e7c14
ph2011-05-29_mk4_1644_d1t10.flac:a7046636e9b1a06c10621aa606bfbf86
ph2011-05-29_mk4_1644_d1t11.flac:e945f3b05c564d5085ac81c2caa8e082
ph2011-05-29_mk4_1644_d1t12.flac:7ead7744fe1d8a89dcedf9c63b9a822a
ph2011-05-29_mk4_1644_d2t01.flac:21a731205d286aafb22e9d772dd1e968
ph2011-05-29_mk4_1644_d2t02.flac:bd7a1e1f4feacb39c10868f26e882e3e
ph2011-05-29_mk4_1644_d2t03.flac:ef3f9d0570e54382ded611c05e135d37
ph2011-05-29_mk4_1644_d2t04.flac:451bd2488893ecab1ff6bac8dc57c4bd
ph2011-05-29_mk4_1644_d2t05.flac:fa753764eda3ba0beb619e9e84a2de95
ph2011-05-29_mk4_1644_d2t06.flac:0eb098d5dd212b26d3c83a6322f6810c
ph2011-05-29_mk4_1644_d2t07.flac:8bc193bf7376c7db92054928a20d3aaf
ph2011-05-29_mk4_1644_d2t08.flac:e0db7d9357f9c48d498da389633d7776
ph2011-05-29_mk4_1644_d3t01.flac:5dc0700347ad470034acb94a98962d91
ph2011-05-29_mk4_1644_d3t02.flac:8da90987c3c9e59ffd380f4188e968ca
ph2011-05-29_mk4_1644_d3t03.flac:d29de170d050c9b14071278b914a9948
ph2011-05-29_mk4_1644_d3t04.flac:c3f4702ccc454101287f1533499c8349
ph2011-05-29_mk4_1644_d3t05.flac:0c5182ca23bf23e904c556e3ea32a2a9
24bit-FFP
ph2011-05-29_mk4_2448_d1t01.flac:ff97981ac9ed70925b6c8640d4982e74
ph2011-05-29_mk4_2448_d1t02.flac:a8aff56c7c2e6d52b14d53103d269f2b
ph2011-05-29_mk4_2448_d1t03.flac:8977685d1b66e1ffe7e0bc9080a4c06e
ph2011-05-29_mk4_2448_d1t04.flac:b0e1410a3ae944130bee1f4b63588890
ph2011-05-29_mk4_2448_d1t05.flac:84e009d45f240113aba4e86caeda8462
ph2011-05-29_mk4_2448_d1t06.flac:ed9928f00fc390e5f009f3f0fa72dff5
ph2011-05-29_mk4_2448_d1t07.flac:a610021d7cc31a0560c9dd24423c0656
ph2011-05-29_mk4_2448_d1t08.flac:7bfee6a693ced960e26c6ee29441dba3
ph2011-05-29_mk4_2448_d1t09.flac:cecac6e82850ad5bca0cc2c1b8c7d71d
ph2011-05-29_mk4_2448_d1t10.flac:61bf342b28dd19c78a1721b0d85bbfb3
ph2011-05-29_mk4_2448_d1t11.flac:d1dde65f92bc9be7505c72bee9644f38
ph2011-05-29_mk4_2448_d1t12.flac:ffec1e8249a12bbccb3a66509a7a83c0
ph2011-05-29_mk4_2448_d1t13.flac:f165f71ae49a0b8ffa0d33c4deb07904
ph2011-05-29_mk4_2448_d2t01.flac:52930ca51a4a4063855aff23744b4063
ph2011-05-29_mk4_2448_d2t02.flac:998dce5c1d467bbca7ab1b1c231e9673
ph2011-05-29_mk4_2448_d2t03.flac:00f1c2044ef123d6e52a1f76095f162c
ph2011-05-29_mk4_2448_d2t04.flac:4ab7d83f4d1949123bf4b0e0c95a036c
ph2011-05-29_mk4_2448_d2t05.flac:3b1d0e923a7c939936e37c05391a191d
ph2011-05-29_mk4_2448_d2t06.flac:e638bf3816b07bc7a740c51c21131783
ph2011-05-29_mk4_2448_d2t07.flac:8ba8aa3b114da23cf30d6ea802bb50f2
ph2011-05-29_mk4_2448_d2t08.flac:3763c7ebfda167b9b6e1c40702a771e6
ph2011-05-29_mk4_2448_d2t09.flac:ee19591a772d57fbad3786660868e209
ph2011-05-29_mk4_2448_d2t10.flac:19daf0084a68fdced56072d7da50b953
ph2011-05-29_mk4_2448_d2t11.flac:274bc21f24de5463ceb7490b9b5f4e76
ph2011-05-29_mk4_2448_d2t12.flac:083ef35af25273b62055788ee5857edd

Comments
Add Comment
Other Sources (comments)
flac16 &... (0) flac16; Sennheiser... (0) flac16; Schoeps MK41... (0) flac16; Schoeps CCM4... (0) flac16; Neumann... (0) flac16; set 2 only;... (0) flac16; Neumann... (0) flac16; Schoeps mk5... (0) flac24; Schoeps mk5... (0)
Date User Comment