Browse Collections Artists Sources   Search Dates

Add Show    List Management    Help


Grateful Dead 06/28/85
Hershey Park Stadium, Hershey, PA
Comments Add Comment    Source Collectors    Add to Collection    Add to Want List    History
Source # 114680 Other Sources
Entered by Matt Vernon
Checksums flac-md5 , ffp
Disc Counts 0 / 0
Media Size
Date Circulated
Date Added
07/21/2011
07/21/2011
Source Summary flac16; Nakamichi CM-300 (CP-4) x2 > Cassette Master (Sony TCD5M/Maxell UDII C-90); Cassette Master (Nakamichi DR-1) > Korg MR-1000 (1-bit/5.6MHz) > Audiogate (1-bit/5.6MHz > 16-bit/44.1KHz) > CD Wave Editor > flac16; Microphones on tripod stand at 7 ft height under an umbrella in the rain; Recorded by Bob Morris 
  Archive
Source Information - Download Text | Download Zip
Grateful Dead - June 28, 1985 - 16/44
Hershey Park Stadium - Hershey, Pennsylvania

Nakamichi CM-300 (CP-4) x2 > Cassette Master
(Sony TCD5M/Maxell UDII C-90)

Cassette Master (Nakamichi DR-1) > Korg MR-1000 (1-bit/5.6MHz) >
Audiogate (1-bit/5.6MHz > 16-bit/44.1KHz) > CD Wave Editor > flac16

Disc One

Set 1:

01 tuning
02 Cold Rain & Snow ->
03 The Promised Land
04 Ramble on Rose
05 I Ain't Superstitious ->
06 Down in the Bottom
07 Bird Song ->
08 Comes a Time ->
09 Deal

Set 2:

10 tuning
11 The Music Never Stopped ->
12 Just Like Tom Thumb's Blues

Disc Two

Set 2 (cont.):

01 Estimated Prophet ->
02 Terrapin ->
03 Drums ->
04 Space ->
05 I Need A Miracle ->
06 Morning Dew ->
07 Throwing Stones ->
08 Not Fade Away

Encore:
09 Day Job

Notes:
- Tape flips spliced (Soundforge 9.0) in Deal (at 0:07) & Drums (at 8:05).
- Microphones on tripod stand at 7 ft height under an umbrella in the rain.
- Crowd/other tapers notably noisy in a few 1st set passages.
- Recorded by Bob Morris -- thanks to Sam for help.
- Transfer (Nov 2009) & edits (Nov 2009, Jun 2011) by Bob Morris.
- One DVD Flac

    length     expanded size    cdr  WAVE problems  fmt   ratio  filename
     1:33.02       16409948 B   ---   --   ---xx   flac  0.5063  gd85-06-28d1t01.flac
     5:31.39       58480172 B   ---   --   ---xx   flac  0.5895  gd85-06-28d1t02.flac
     4:27.42       47197628 B   ---   --   ---xx   flac  0.5729  gd85-06-28d1t03.flac
     6:38.48       70320140 B   ---   --   ---xx   flac  0.5604  gd85-06-28d1t04.flac
     2:26.11       25780316 B   ---   --   ---xx   flac  0.5585  gd85-06-28d1t05.flac
     4:38.41       49135676 B   ---   --   ---xx   flac  0.5718  gd85-06-28d1t06.flac
     6:46.17       71658428 B   ---   --   ---xx   flac  0.5624  gd85-06-28d1t07.flac
     6:30.02       68800748 B   ---   --   ---xx   flac  0.5438  gd85-06-28d1t08.flac
     6:26.69       68252732 B   ---   --   ---xx   flac  0.5955  gd85-06-28d1t09.flac
     1:29.64       15850172 B   ---   --   ---xx   flac  0.4989  gd85-06-28d1t10.flac
     9:09.62       96989468 B   ---   --   ---xx   flac  0.5768  gd85-06-28d1t11.flac
     5:01.04       53105852 B   ---   --   ---xx   flac  0.5551  gd85-06-28d1t12.flac
    11:25.48      120946940 B   ---   --   ---xx   flac  0.5608  gd85-06-28d2t01.flac
    10:59.50      116365244 B   ---   --   ---xx   flac  0.5642  gd85-06-28d2t02.flac
     8:43.07       92273708 B   ---   --   ---xx   flac  0.5123  gd85-06-28d2t03.flac
     7:57.38       84232220 B   ---   --   ---xx   flac  0.5294  gd85-06-28d2t04.flac
     4:04.38       43131020 B   ---   --   ---xx   flac  0.5849  gd85-06-28d2t05.flac
    10:36.51      112310396 B   ---   --   ---xx   flac  0.5554  gd85-06-28d2t06.flac
     8:48.33       93216860 B   ---   --   ---xx   flac  0.5810  gd85-06-28d2t07.flac
     7:43.12       81701468 B   ---   --   ---xx   flac  0.5830  gd85-06-28d2t08.flac
     4:24.72       46738988 B   ---   --   ---xx   flac  0.5994  gd85-06-28d2t09.flac
   135:23.00     1432898124 B                            0.5626  (21 files)

No errors occured.
Show Checksums
flac-md5
81c51541b9efb4efaf24490c238e325b *gd85-06-28d1t01.flac
ca30e7c5bf9bb2d2b51aa9c8242a09c0 *gd85-06-28d1t02.flac
2c3b4d9f0e6068c7fe1e0b1e02b72697 *gd85-06-28d1t03.flac
e85256ae6c24941a33faa37773b1159f *gd85-06-28d1t04.flac
264eb2e36a604a3d15151d31fb25f1ad *gd85-06-28d1t05.flac
72b31d88c3e9ff7bcb9aca1c532a6ef3 *gd85-06-28d1t06.flac
064b96be5d07376bdbecaf13d595df3b *gd85-06-28d1t07.flac
1440a0297b0b00b4362912b496509ed7 *gd85-06-28d1t08.flac
cc30e070b4cee084b5387ecf3882169f *gd85-06-28d1t09.flac
249280c418f89e721c6e3a339850890e *gd85-06-28d1t10.flac
3cb0f5cf9deafff94c8c5ef935bed928 *gd85-06-28d1t11.flac
2eccab9d025208e3b4cc0c5dcdfea6db *gd85-06-28d1t12.flac
b4f29a1f6bbb544517d0486c493b1f46 *gd85-06-28d2t01.flac
31cf056161fa6def85c49c6862768074 *gd85-06-28d2t02.flac
e2572db308422f773339345be5aa4c65 *gd85-06-28d2t03.flac
453ab1ef26187c48cb5a72be4c5148c1 *gd85-06-28d2t04.flac
bc5fda8ce05b62a0427ea72d7a2e4345 *gd85-06-28d2t05.flac
39f6db8516b70b25692d2a5897bad1ef *gd85-06-28d2t06.flac
801058a717506e5d4688f585fbcc6907 *gd85-06-28d2t07.flac
95ba6fcaeeda01652420593fc401a8f1 *gd85-06-28d2t08.flac
ccde5f8893d8c734da0123f4d77e9b15 *gd85-06-28d2t09.flac
ffp
gd85-06-28d1t01.flac:631d1e3266481070ddccee8aa56ab396
gd85-06-28d1t02.flac:83154b9f7afbd4644f2881a06390e598
gd85-06-28d1t03.flac:131aa939a717e311bd5f9dacca9ce322
gd85-06-28d1t04.flac:6600abf47464a62ce57a9e26ecb945de
gd85-06-28d1t05.flac:9a5f73dbfd374221dc21e56592a587c4
gd85-06-28d1t06.flac:40e7e3e69a2c4ea9872c0002c597f27b
gd85-06-28d1t07.flac:e1e753282b97eee70fbdcee4a38e6482
gd85-06-28d1t08.flac:e5f23ce3a8e54943e6fe6fc5628494c9
gd85-06-28d1t09.flac:70e2e0012fbb0bb9efd1a9d0aefd9aad
gd85-06-28d1t10.flac:1855084d0b3e1355b40519aac3162e69
gd85-06-28d1t11.flac:490c73a3afd836b4c53e58d590fe6649
gd85-06-28d1t12.flac:a5bb5e0074e8ca2bbfc1fa6ccd3b017f
gd85-06-28d2t01.flac:fc6ffa409d610dca5805ed1c77503873
gd85-06-28d2t02.flac:25a4b9e124c6f2c9350eb5e8e853cae7
gd85-06-28d2t03.flac:ca094318ac60a2472a75a890355d1e2a
gd85-06-28d2t04.flac:ecae5354a6f7b20688975d87c4ee6113
gd85-06-28d2t05.flac:e8fbe42f73c13062e707d503976d7a6e
gd85-06-28d2t06.flac:fb49576dc84e5d21d540cd27404bdc30
gd85-06-28d2t07.flac:681658e437cdcf9d47fdca865502b1a0
gd85-06-28d2t08.flac:c07058afd0cd8a7cd3561bc6eb140507
gd85-06-28d2t09.flac:1858c8f50be3808cb96dfc564fbe3cde

Comments
Add Comment
Other Sources (comments)
SBD? liberated bootleg; via... (8) AUD: FOB Sony D-5M... (0) Set 1 Source: SBD (2) FOB Sony D-5M Sennheiser... (0) Source: SBD > CM > DAT >... (1) flac16; (FOB) 2... (0) Sennheiser 4xx's > Marantz... (0) flac16; source:... (0) flac16; Source:... (0) flac24; Source:... (0) flac16; Recording... (2) flac16: Recorded by... (0) flac24; Nakamichi... (0) flac24; source: (3)... (0) flac24; Updated... (1) flac16; 2 Source... (0) flac16; Phase Fix of... (2) flac24; Source:... (0)
Date User Comment