Browse Collections Artists Sources   Search Dates

Add Show    List Management    Help


Grateful Dead 03/21/81
Rainbow Theater, London, England
Comments Add Comment    Source Collectors    Add to Collection    Add to Want List    History
Source # 114710 Other Sources
Entered by Matt Vernon
Checksums ffp , flac-md5
Disc Counts 2 / 3
Media Size
Date Circulated
Date Added
07/24/2011
07/24/2011
Source Summary flac16; SBD/AUD - Matrix SBD:MC > C > CD (speed corrected) & AUD:MC > C/1 > SB!Live > WaveLab > shn MC: Sony TC D5M, dolby B, TDK MA C90, Sennheiser 406T C/1: TDK SA-C90, Maxell XL II, dolby B, Nakamishi DR1 minor denoising and equalising (WaveLab) Frank Streeter's Sennheiser 421 mic > Sony D5 Audience source supplies the Intro as well as a patch in Drums 
  Archive
Source Information - Download Text | Download Zip
Grateful Dead
21st March 1981, Saturday
Rainbow Theatre
London, England

SBD/AUD - Matrix

SBD:MC > C > CD (speed corrected)

AUD:MC > C/1 > SB!Live > WaveLab > shn MC: Sony TC D5M, dolby B, TDK MA C90,
Sennheiser 406T C/1: TDK SA-C90, Maxell XL II, dolby B, Nakamishi DR1 minor
denoising and equalising (WaveLab)

Frank Streeter's Sennheiser 421 mic > Sony D5 Audience source supplies
the Intro as well as a patch in Drums

The soundboard tape cuts in Little Red Rooster, at the end of Eyes, and in Drums
The audience tape cuts in Drums (Frank Streeter patch)

matrix compilation by franka
__________________________________________________________________________________________

--Set 1--
101-d1t01 - Intro                  
102-d1t02 - Alabama Getaway ->        
103-d1t03 - Promised Land          
104-d1t04 - Peggy-O                
105-d1t05 - Me & My Uncle ->          
106-d1t06 - Big River              
107-d1t07 - Tennessee Jed          
108-d1t08 - Little Red Rooster    
109-d1t09 - Althea                  
110-d2t01 - Let It Grow ->          
111-d2t02 - China Cat Sunflower ->    
112-d2t03 - I Know You Rider        

--Set 2--
201-d2t04 - Jack Straw              
202-d2t05 - Ship of Fools        
203-d3t01 - Estimated Prophet ->    
204-d3t02 - Eyes of the World ->    
205-d3t03 - Drums ->                  
206-d3t04 - Space ->                  
207-d3t05 - Not Fade Away ->          
208-d3t06 - Black Peter ->            
209-d4t07 - One More Saturday Night

--Encore--
210-d3t08 - Don't Ease Me In      
__________________________________________________________________________________________

Tagging notes:
Show information is embedded within the header of each flac file.
It will display on any player capable of directly playing flac files.
If converted to wav during processing, all tags will be stripped,
however audio data will remain unaffected.
If you must transcode to a lossy format, do so directly Flac > Lossy.
Use ffp to validate audio integrity.
Md5 values will change if tagging is altered.
B. Proctor 7-24-11
___________________________________________________________________________________________        

    length     expanded size    cdr  WAVE problems  fmt   ratio  filename
     1:12.41       12797276 B   ---   --   ---xx   flac  0.5744  gd1981-03-21mtxd1t01.flac
     5:31.09       58409612 B   ---   --   ---xx   flac  0.6389  gd1981-03-21mtxd1t02.flac
     4:29.03       47458700 B   ---   --   ---xx   flac  0.6376  gd1981-03-21mtxd1t03.flac
     7:18.37       77350268 B   ---   --   ---xx   flac  0.5697  gd1981-03-21mtxd1t04.flac
     3:09.66       33494876 B   ---   --   ---xx   flac  0.6292  gd1981-03-21mtxd1t05.flac
     5:40.03       59983100 B   ---   --   ---xx   flac  0.6526  gd1981-03-21mtxd1t06.flac
     8:35.22       90897788 B   ---   --   ---xx   flac  0.6307  gd1981-03-21mtxd1t07.flac
     9:06.31       96387356 B   ---   --   ---xx   flac  0.6472  gd1981-03-21mtxd1t08.flac
    10:30.54      111259052 B   ---   --   ---xx   flac  0.6098  gd1981-03-21mtxd1t09.flac
    13:03.63      138269420 B   ---   --   ---xx   flac  0.6334  gd1981-03-21mtxd2t01.flac
     6:26.56       68222156 B   ---   --   ---xx   flac  0.6246  gd1981-03-21mtxd2t02.flac
     8:04.24       85434092 B   ---   --   ---xx   flac  0.6378  gd1981-03-21mtxd2t03.flac
     6:01.29       63748652 B   ---   --   ---xx   flac  0.6386  gd1981-03-21mtxd2t04.flac
     9:08.06       96681356 B   ---   --   ---xx   flac  0.5754  gd1981-03-21mtxd2t05.flac
    12:32.39      132744572 B   ---   --   ---xx   flac  0.6303  gd1981-03-21mtxd3t01.flac
    13:11.13      139563020 B   ---   --   ---xx   flac  0.6545  gd1981-03-21mtxd3t02.flac
    10:57.59      116033612 B   ---   --   ---xx   flac  0.5698  gd1981-03-21mtxd3t03.flac
     6:42.16       70950476 B   ---   --   ---xx   flac  0.5765  gd1981-03-21mtxd3t04.flac
    10:23.18      109939580 B   ---   --   ---xx   flac  0.6485  gd1981-03-21mtxd3t05.flac
     9:08.22       96718988 B   ---   --   ---xx   flac  0.5895  gd1981-03-21mtxd3t06.flac
     5:22.07       56817308 B   ---   --   ---xx   flac  0.6547  gd1981-03-21mtxd3t07.flac
     3:35.70       38090684 B   ---   --   ---xx   flac  0.6254  gd1981-03-21mtxd3t08.flac
   170:11.13     1801251944 B                            0.6213  (22 files)


Show Checksums
ffp
gd1981-03-21mtxd1t01.flac:558c956fe4de4d06c1dd80fc3f95a410
gd1981-03-21mtxd1t02.flac:7b077a2f51f3c6fe685b29537e5e8799
gd1981-03-21mtxd1t03.flac:69d5eb43222123fa1d6c1f9a45f2d566
gd1981-03-21mtxd1t04.flac:ca280a8a92cd76a404b6bf2d418a09ee
gd1981-03-21mtxd1t05.flac:f3149de2c322b7214e9d2d736630a28d
gd1981-03-21mtxd1t06.flac:7a5e7d7cc17a324bc4ff67d10473b800
gd1981-03-21mtxd1t07.flac:b678950cd290f15a70d0f97fa6aae525
gd1981-03-21mtxd1t08.flac:f802ab4e2a214f446c58f2ba04bbe2b5
gd1981-03-21mtxd1t09.flac:4098a0a70a7ee16dc168f1cfb0a3e36e
gd1981-03-21mtxd2t01.flac:b7aa693e7f96da5d4bcf8b361b59c61e
gd1981-03-21mtxd2t02.flac:2a52b1e46d9275fb3b92bd74b2e140c6
gd1981-03-21mtxd2t03.flac:1dcf9c6fd3488fa685197a7156764187
gd1981-03-21mtxd2t04.flac:dd9ef728d480ebb1eae6ac46b55be55c
gd1981-03-21mtxd2t05.flac:9de5190e80894f0ebd657d8cc90784d9
gd1981-03-21mtxd3t01.flac:b4db96cc615d9dae4de816be6fae0051
gd1981-03-21mtxd3t02.flac:83fe8bb8d25cfcb0b5eebbd3598a22db
gd1981-03-21mtxd3t03.flac:4ad278fcd3d585f870b5dda01e1b99c1
gd1981-03-21mtxd3t04.flac:1f012dff4c167b005aa3871b89eb813b
gd1981-03-21mtxd3t05.flac:a5cdef09e917fc3c51e69c5301c3c94a
gd1981-03-21mtxd3t06.flac:bd275b91a80d01c4c484542807e16cfe
gd1981-03-21mtxd3t07.flac:0c7d8924f9a9148fcdbcc1f49dbeff0c
gd1981-03-21mtxd3t08.flac:a51b64f5c26bdb70cc91329a50e1c7af
flac-md5
c429cfc25661222338dc3e5360bfe8ad *gd1981-03-21mtxd1t01.flac
7d537cc8563ada4c1dd434627dd27208 *gd1981-03-21mtxd1t02.flac
873f26d2a1bff405b10a35641162e927 *gd1981-03-21mtxd1t03.flac
3cd1e0d5d3a8cbc4de8904e934e7bb7d *gd1981-03-21mtxd1t04.flac
c5a10cf89adcef370a9290f8a0e1da58 *gd1981-03-21mtxd1t05.flac
00a917bd0eac6a5cb8da889ce4d7bec5 *gd1981-03-21mtxd1t06.flac
10f46e54630f637e819f9d029733b05f *gd1981-03-21mtxd1t07.flac
2220d348a7f19ea34e83cf0b3364ad86 *gd1981-03-21mtxd1t08.flac
3e226d4959eafffa137c798f059feb9f *gd1981-03-21mtxd1t09.flac
a69f0a22d07c2030325c4eb6a065c79f *gd1981-03-21mtxd2t01.flac
27ec17c585e0b342e150996f52475247 *gd1981-03-21mtxd2t02.flac
f8b18bc29e48527bfad6b4efefab267d *gd1981-03-21mtxd2t03.flac
e96faa613a4fd076e16194465200f492 *gd1981-03-21mtxd2t04.flac
69a3578c205c366ec11d68019b980edb *gd1981-03-21mtxd2t05.flac
64d4ff01ce137f1cea44681f4c72f6e9 *gd1981-03-21mtxd3t01.flac
fff942b149156ba5a7157d2aaea0e569 *gd1981-03-21mtxd3t02.flac
1d09c20607a019f1b26bb02f7a720f0a *gd1981-03-21mtxd3t03.flac
6974cc341972fc00db98170aca4addfa *gd1981-03-21mtxd3t04.flac
6526f8b97e45e25f79a25aa50748a11d *gd1981-03-21mtxd3t05.flac
378507bd7996448d347adf7262086539 *gd1981-03-21mtxd3t06.flac
a353c71375b82353c0d40561abc4f425 *gd1981-03-21mtxd3t07.flac
61d99a22136fc1bd4adb638ec4318178 *gd1981-03-21mtxd3t08.flac

Comments
Add Comment
Other Sources (comments)
Senn 421's> Sony TC-D5... (1) Master Soundboard Cassette... (4) SBD:MC> Cass> CD, with AUD... (1) AUD > MC > C > Nakamishi... (0) flac16; Set II... (1) flac16; Recording... (0) flac16; Source Info:... (0) flac24; Source Info:... (0)
Date User Comment
08/08/2011 1478 Outstanding sound..!