Browse Collections Artists Sources   Search Dates

Add Show    List Management    Help


Derek Trucks Band 09/07/09
Snowy Range Music Festival, Laramie, WY
Comments Add Comment    Source Collectors    Add to Collection    Add to Want List    History
Source # 115167 Other Sources
Entered by Steve Blanchard
Checksums ffp , md5
Disc Counts 0 / 0
Media Size
Date Circulated
Date Added

07/28/2011
Source Summary Church Audio CA-11 Omni caps-> CA St-9000 (Gain +20) -> Edirol R09HR 
  Archive
Source Information - Download Text | Download Zip
  The Derek Trucks Band
  Sept 07 , 2009
  Main Stage
  Snowy Range
  Laramie, WY
  Total Time - 87:34 min

  Recorded by Patrick H.

  Source: Church Audio CA-11 Omni caps
  -> CA St-9000 (Gain +20) -> Edirol
  R09HR (24/96) (Line In) (St9000
  Gain = 55%, Edirol Record Level = 67)

  Location: FOB ~ 30 feet from stage
  Close to dead center

  Transfer: Edirol R09HR (24/96) wav ->
  USB cable -> PC

  Editing: Wavelab (plugins)-> Flac(16)

  MD5's and SBE checked and verified.
  By Patrick H. 09/08/2009
  
  Disc 1 Set 1 (47:30)
  01 Intro for DTB 2:15
  02 Sweet Inspriration 6:52
  03 Sail on? 5:48
  04 Intro by DT -> Jam 13:16
  05 Path you take? 6:11
  06 Here's my fathers child? 5:24
  07 Key to the Highway 7:53

  Disc 2 Set 1 (39:50)
  01 Spend my time loving you? 5:19
  02 Feels Ok? 8:43
  03 My Favorite things 13:03

     W/Susan T.
  04 Any Way (Clapton tune?) 12:45
  Missed Encore.

  Notes:

  D1T01 Adjusting Levels first minute
  of show.  

  This was the headline act of the festival.
  Only about 200 - 300 people showed up.
  It was located in what looked to be a Rodeo
  area with a field and bleachers. The
  bleachers had a roof which was nice for
  the rain. Sound was very loud and came
  off 2 stacks mounted about 15 feet off
  the ground. Sound man was in first row
  of bleachers. There was some wind and  
  there is low crowd noise. The recording
  came out nice. Susan T. sat in.

  I recorded FOB about ~30 feet from stage
  close to dead center. I was joined by
  royboy who recorded too.  

  Took photos and put them in a directory
  called "pics". I guessed on song titles.
  
  Performance: A
  Sound Quality: B+/A-
  
  md5
e36f594e178c93c3b1db4b68eef1f39f *DTB_2009-09-07_D101.flac
46f95e66899a2bf4f754dc4933b9bd05 *DTB_2009-09-07_D102.flac
05074b07a1960e3ccd77a4927f870fb0 *DTB_2009-09-07_D103.flac
7b6f1da7e87acea5054b6c2b12567619 *DTB_2009-09-07_D104.flac
eefa8e865243649370c182ae6bad6f05 *DTB_2009-09-07_D105.flac
ca7acd20a6b002b11a025af8e14c1eac *DTB_2009-09-07_D106.flac
8ebc2f9f3c9c28b9fd2505ab50467476 *DTB_2009-09-07_D107.flac
26823dba230e302f95a99e496ee1c059 *DTB_2009-09-07_D108.flac
c5807c4c8d973817e546d38245ba36d9 *DTB_2009-09-07_D109.flac
36448f895ac50ad32bf2e846e93397e2 *DTB_2009-09-07_D110.flac
39f5239cc73c810c4967452bb475b5bd *DTB_2009-09-07_D111.flac

  shntool
    length     expanded size   cdr  WAVE problems filename
     2:15.13       23844620    ---   --   -----   DTB_2009-09-07_D101.wav
     6:52.27       72740348    ---   --   -----   DTB_2009-09-07_D102.wav
     5:48.45       61493084    ---   --   -----   DTB_2009-09-07_D103.wav
    13:16.63      140562620    ---   --   -----   DTB_2009-09-07_D104.wav
     6:11.61       65587916    ---   --   -----   DTB_2009-09-07_D105.wav
     5:24.26       57214796    ---   --   -----   DTB_2009-09-07_D106.wav
     7:53.33       83514860    ---   --   -----   DTB_2009-09-07_D107.wav
     5:19.37       56358668    ---   --   -----   DTB_2009-09-07_D108.wav
     8:43.18       92299580    ---   --   -----   DTB_2009-09-07_D109.wav
    13:03.56      138252956    ---   --   -----   DTB_2009-09-07_D110.wav
    12:45.20      134993084    ---   --   -----   DTB_2009-09-07_D111.wav
    87:34.24      926862532 B                     (totals for 11 files, 1.0000 overall compression ratio)

  ffp
; flac fingerprint file generated by Trader's Little Helper
; generated on September 8, 2009, at 09:04:44

DTB_2009-09-07_D101.flac:33f283f61d43b0a33cfdf79086b169de
DTB_2009-09-07_D102.flac:41f5129bb34e7591d6eee7059bde8542
DTB_2009-09-07_D103.flac:8a4aaea0efaec78f527c9c04764f3125
DTB_2009-09-07_D104.flac:0a9600cbea83094958dc62de24fd0894
DTB_2009-09-07_D105.flac:7008f4a5941dde635f8ef29056990e2b
DTB_2009-09-07_D106.flac:922e9d3d24af0a5227b92240c67c4d8a
DTB_2009-09-07_D107.flac:56a2e48b179d0acf8327cd7d535af81f
DTB_2009-09-07_D108.flac:4f18fce45fde4fbf18937ef17c758e67
DTB_2009-09-07_D109.flac:c342af528639d12b870af06995dd1357
DTB_2009-09-07_D110.flac:ccec827244274984e65ac6cb87a6a906
DTB_2009-09-07_D111.flac:231cd164e31a0448add9423cf21cc20b
Show Checksums
ffp
DTB_2009-09-07_D101.flac:33f283f61d43b0a33cfdf79086b169de
DTB_2009-09-07_D102.flac:41f5129bb34e7591d6eee7059bde8542
DTB_2009-09-07_D103.flac:8a4aaea0efaec78f527c9c04764f3125
DTB_2009-09-07_D104.flac:0a9600cbea83094958dc62de24fd0894
DTB_2009-09-07_D105.flac:7008f4a5941dde635f8ef29056990e2b
DTB_2009-09-07_D106.flac:922e9d3d24af0a5227b92240c67c4d8a
DTB_2009-09-07_D107.flac:56a2e48b179d0acf8327cd7d535af81f
DTB_2009-09-07_D108.flac:4f18fce45fde4fbf18937ef17c758e67
DTB_2009-09-07_D109.flac:c342af528639d12b870af06995dd1357
DTB_2009-09-07_D110.flac:ccec827244274984e65ac6cb87a6a906
DTB_2009-09-07_D111.flac:231cd164e31a0448add9423cf21cc20b
md5
e36f594e178c93c3b1db4b68eef1f39f *DTB_2009-09-07_D101.flac
46f95e66899a2bf4f754dc4933b9bd05 *DTB_2009-09-07_D102.flac
05074b07a1960e3ccd77a4927f870fb0 *DTB_2009-09-07_D103.flac
7b6f1da7e87acea5054b6c2b12567619 *DTB_2009-09-07_D104.flac
eefa8e865243649370c182ae6bad6f05 *DTB_2009-09-07_D105.flac
ca7acd20a6b002b11a025af8e14c1eac *DTB_2009-09-07_D106.flac
8ebc2f9f3c9c28b9fd2505ab50467476 *DTB_2009-09-07_D107.flac
26823dba230e302f95a99e496ee1c059 *DTB_2009-09-07_D108.flac
c5807c4c8d973817e546d38245ba36d9 *DTB_2009-09-07_D109.flac
36448f895ac50ad32bf2e846e93397e2 *DTB_2009-09-07_D110.flac
39f5239cc73c810c4967452bb475b5bd *DTB_2009-09-07_D111.flac

Comments
Add Comment
Other Sources (comments)
EdirolR09 Internal Mics (0)
Date User Comment