Browse Collections Artists Sources   Search Dates

Add Show    List Management    Help


Grateful Dead 03/10/81
Madison Square Garden, New York, NY
Comments Add Comment    Source Collectors    Add to Collection    Add to Want List    History
Source # 115598 Other Sources
Entered by Gary Field
Checksums ffp , flac-md5
Disc Counts 2 / 3
Media Size
Date Circulated
Date Added
08/13/2011
08/13/2011
Source Summary flac16; Recording Info: SBD -> Cassette Master -> Dat (44.1k); Transfer Info: Dat (Sony R500) -> Tascam SS-R05 -> Samplitude Professional v11.2 -> FLAC; All Transfers and Mastering By Charlie Miller 
  Archive
Source Information - Download Text | Download Zip
Grateful Dead - March 10, 1981
Madison Square Garden - New York, NY

Recording Info:
SBD -> Cassette Master -> Dat (44.1k)

Transfer Info:
Dat (Sony R500) -> Tascam SS-R05 -> Samplitude Professional v11.2 -> FLAC
(3 Discs Audio / 1 DVD FLAC)

All Transfers and Mastering By Charlie Miller
[email protected]
August 1, 2011

Patch Info:
(FOB) Nakamichi 700 -> Cassette Master (shnid=95276) supplies:
Mississippi Half-Step Uptown Toodeloo (0:00 - 0:11)
Drums (2:16 - 2:26)

Notes:
-- All disc changes are seamless
-- Smokestack Lightning jam after Truckin'

Set 1:
d1t01 - Mississippi Half-Step Uptown Toodeloo ->
d1t02 - Franklin's Tower ->
d1t03 - Me And My Uncle
d1t04 - It Must Have Been The Roses ->
d1t05 - Little Red Rooster
d1t06 - Don't Ease Me In
d1t07 - Lazy Lightnin' ->
d1t08 - Supplication
d1t09 - Brown Eyed Women ->
d1t10 - Looks Like Rain
d2t01 - Deal

Set 2:
d2t02 - Scarlet Begonias ->
d2t03 - Fire On The Mountain ->
d2t04 - Lost Sailor ->
d2t05 - Saint Of Circumstance ->
d2t06 - Drums ->
d3t01 - Space ->
d3t02 - The Wheel ->
d3t03 - China Doll ->
d3t04 - Truckin' ->
d3t05 - Sugar Magnolia

Encore:
d3t06 - (I Can't Get No) Satisfaction ->
d3t07 - Brokedown Palace


SHNTOOL OUTPUT:
    length     expanded size   cdr  WAVE problems filename
    11:34.74      122595692    ---   --   -----   gd81-03-10d1t01.wav
    10:56.56      115850156    ---   --   -----   gd81-03-10d1t02.wav
     7:13.58       76517660    ---   --   -----   gd81-03-10d1t03.wav
     6:17.46       66611036    ---   --   -----   gd81-03-10d1t04.wav
     8:10.72       86605388    ---   --   -----   gd81-03-10d1t05.wav
     5:08.03       54338300    ---   --   -----   gd81-03-10d1t06.wav
     3:20.74       35454092    ---   --   -----   gd81-03-10d1t07.wav
     8:21.44       88479932    ---   --   -----   gd81-03-10d1t08.wav
     5:18.21       56144636    ---   --   -----   gd81-03-10d1t09.wav
     9:15.05       97913804    ---   --   -----   gd81-03-10d1t10.wav
     7:07.63       75471020    ---   --   -----   gd81-03-10d2t01.wav
    11:13.18      118759580    ---   --   -----   gd81-03-10d2t02.wav
    15:18.41      162031676    ---   --   -----   gd81-03-10d2t03.wav
     6:06.36       64647116    ---   --   -----   gd81-03-10d2t04.wav
     9:39.29      102203852    ---   --   -----   gd81-03-10d2t05.wav
    10:27.51      110722796    ---   --   -----   gd81-03-10d2t06.wav
     2:26.25       25813244    ---   --   -----   gd81-03-10d3t01.wav
     5:50.70       61904684    ---   --   -----   gd81-03-10d3t02.wav
     7:07.09       75344012    ---   --   -----   gd81-03-10d3t03.wav
     8:30.43       90065180    ---   --   -----   gd81-03-10d3t04.wav
    10:04.04      106555052    ---   --   -----   gd81-03-10d3t05.wav
     6:13.70       65961884    ---   --   -----   gd81-03-10d3t06.wav
     5:56.48       62911340    ---   --   -----   gd81-03-10d3t07.wav
   181:40.60     1922902132 B                     (totals for 23 files)
Show Checksums
ffp
gd81-03-10d1t01.flac:4a6bac32d95df08fc4adcd74e1a9ee25
gd81-03-10d1t02.flac:5491d30b3edfd3ff952851c77aed4578
gd81-03-10d1t03.flac:b87d1c1badf1ed1b2541bf99e1a80641
gd81-03-10d1t04.flac:fcec174dbbb76880075e4a0f382ace1e
gd81-03-10d1t05.flac:bcb29c4ca0ad1da4f9ef0670fea23531
gd81-03-10d1t06.flac:446738da11f39a3faa57ae1445d20a7b
gd81-03-10d1t07.flac:849b59d41357c0a6ab5dd44de6051967
gd81-03-10d1t08.flac:9aaad8401b61bdb8d79960221c528fcd
gd81-03-10d1t09.flac:d5ad559e02b807fcea4446fce3759d1d
gd81-03-10d1t10.flac:bd5cbd1d7170f15def79491c86a11d04
gd81-03-10d2t01.flac:c9cc64df65e50cf93ec76c30ca28522f
gd81-03-10d2t02.flac:0b09f3c32191c43bc86cdcc28ccb0ca4
gd81-03-10d2t03.flac:f2810ff355f68d2b3ea0ed7378425ed4
gd81-03-10d2t04.flac:ece2b61031f050461dec5deadd467e1e
gd81-03-10d2t05.flac:cfc9058f4f4738981e7c762f75052624
gd81-03-10d2t06.flac:78d90671a898e8448066849a6e2299b5
gd81-03-10d3t01.flac:2cf742fda5c561d9871597ce711ecf69
gd81-03-10d3t02.flac:b9d8c13714b0785d13521c938c659ed4
gd81-03-10d3t03.flac:2b4bcb5fbdce717faf7314409b2b8aa7
gd81-03-10d3t04.flac:45f09703cf19b7bb45c95e862dfbf58d
gd81-03-10d3t05.flac:96b29bedf849081287e41286f8bbe8d4
gd81-03-10d3t06.flac:f26f82794897248fb9bd63de628f02b0
gd81-03-10d3t07.flac:a9c418814cf2434e0faae16015721a74
flac-md5
2a5fe08e85f8c903908ada4c0e8cffa8 *gd81-03-10d1t01.flac
daeb115d65b1f25ebe3bdd73d0bcae82 *gd81-03-10d1t02.flac
eb44e4a2f5fc1ac99a310e313ec1447d *gd81-03-10d1t03.flac
cc77fc948b19cee678d93faa78e1ed82 *gd81-03-10d1t04.flac
7385ad92e6c5edd4dc31ecd03f2fc2ca *gd81-03-10d1t05.flac
b4c146425e7f0bb9dfe7f2a741db4822 *gd81-03-10d1t06.flac
d97fb0ab759182934638dbb811e751c6 *gd81-03-10d1t07.flac
7099868ff330be3330dbda17f39a4f87 *gd81-03-10d1t08.flac
8435f11542ded10ccce0dc98b9400484 *gd81-03-10d1t09.flac
dc41f4d06dc2c9665e2c7e5f930ddacb *gd81-03-10d1t10.flac
89161caa99013ffa41bf7a9c89831ab4 *gd81-03-10d2t01.flac
9fcae1b424c0e820a557a986e487f28e *gd81-03-10d2t02.flac
1e53f4e513100f7622e36fe725bff00f *gd81-03-10d2t03.flac
8af26a4354a83b518268c2d4693c7acb *gd81-03-10d2t04.flac
5f999d2eb79c9fc46576befff9736f52 *gd81-03-10d2t05.flac
f2f43648c6e0d8477082e47344eb1a52 *gd81-03-10d2t06.flac
a48c5d0e03415307eaaca365edb31d9a *gd81-03-10d3t01.flac
0a58f43f7d3315764cec9a3e1196620a *gd81-03-10d3t02.flac
e3eccb4fed21d1af216124e5a447df93 *gd81-03-10d3t03.flac
26e341a17c4d13eb814866a9fadfe101 *gd81-03-10d3t04.flac
8457978fc77bbbe70de88de5bf2d7af2 *gd81-03-10d3t05.flac
dac09a2c61023c366620e82348cbf18d *gd81-03-10d3t06.flac
e4d9df9b366fc4015030c8f5f52d7541 *gd81-03-10d3t07.flac

Comments
Add Comment
Other Sources (comments)
Recording by Barry... (0) flac16; Recording by... (2) flac24/96; Recording... (0) flac16; Set 2 only,... (1) flac16; Recording... (0) flac24; Recording... (0) flac16; Recording by... (0) flac24; Recording by... (0) flac16; Matrix by... (0)
Date User Comment