Browse Collections Artists Sources   Search Dates

Add Show    List Management    Help


Grateful Dead 09/15/87
Madison Square Garden, New York, NY
Comments Add Comment    Source Collectors    Add to Collection    Add to Want List    History
Source # 115933 Other Sources
Entered by andrew
Checksums flac-md5 , ffp
Disc Counts 0 / 0
Media Size Compressed: 2.44 GB (2617986886 bytes)
Date Circulated
Date Added
09/05/2011
09/05/2011
Source Summary flac24; 24bit/48kHz file set: OTS AUD: 2x Nakamichi CM300 w/CP4 shotguns > Sony TC-D5M > Maxell MX90's, w/no Dolby. Taped by Ted Gidley. Transfer: MAC > Nakamichi CR-5A > Edirol FA-66 > Wavelab > TLH > FLAC 2448 tagged. Transfer by Andrew F. 09/2011 
  Archive
Source Information - Download Text | Download Zip
GRATEFUL DEAD
Madison Square Garden
New York NY
09-15-1987

24bit/48kHz file set

s1t01 crowd & tuning
s1t02 Hey Pocky Way
s1t03 Minglewood Blues
s1t04 When Push Comes to Shove
s1t05 communist sabatoge > beer barrel polka
s1t06 Me & My Uncle >
s1t07 Mexicali Blues
s1t08 Row Jimmy
s1t09 Queen Jane Approximately
s1t10 Tennessee Jed
s1t11 Music Never Stopped

s2t01 China Cat Sunflower >
s2t02 I Know You Rider
s2t03 Estimated Prophet >
s2t04 Eyes of the World >
s2t05 Drums >
s2t06 Space >
s2t07 The Wheel >
s2t08 Gimme Some Lovin' >
s2t09 Black Peter >
s2t10 Sugar Magnolia
s2t11 crowd & tuning
s2t12 Encore: It's All Over Now Baby Blue

OTS AUD: 2x Nakamichi CM300 w/CP4 shotguns > Sony TC-D5M >
Maxell MX90's, w/no Dolby. Taped by Ted Gidley.

Transfer: MAC > Nakamichi CR-5A > Edirol FA-66 > Wavelab >
TLH > FLAC 2448 tagged. Transfer by Andrew F. 09/2011

Note: Patch from next in line MAC covers tape flip in Space.

    length     expanded size    cdr  WAVE problems  fmt   ratio  filename
     1:07.640      19480364 B   cxx   --   ---xx   flac  0.7006  gd1987-09-15s1t01.flac
     4:56.000      85248044 B   cxx   --   ---xx   flac  0.7384  gd1987-09-15s1t02.flac
     8:57.147     154698284 B   cxx   --   ---xx   flac  0.7334  gd1987-09-15s1t03.flac
     5:48.160     100270124 B   cxx   --   ---xx   flac  0.7300  gd1987-09-15s1t04.flac
     2:58.360      51367724 B   cxx   --   ---xx   flac  0.7113  gd1987-09-15s1t05.flac
     3:02.187      52469804 B   cxx   --   ---xx   flac  0.7303  gd1987-09-15s1t06.flac
     6:08.187     106037804 B   cxx   --   ---xx   flac  0.7191  gd1987-09-15s1t07.flac
     9:29.614     164048906 B   cxx   --   ---xx   flac  0.7220  gd1987-09-15s1t08.flac
     6:44.107     116382764 B   cxx   --   ---xx   flac  0.7254  gd1987-09-15s1t09.flac
     8:24.013     145155884 B   cxx   --   ---xx   flac  0.7374  gd1987-09-15s1t10.flac
     8:08.946     140816384 B   cxx   --   ---xx   flac  0.7387  gd1987-09-15s1t11.flac
     6:24.213     110653484 B   cxx   --   ---xx   flac  0.7410  gd1987-09-15s2t01.flac
     6:44.280     116432684 B   cxx   --   ---xx   flac  0.7453  gd1987-09-15s2t02.flac
    11:09.827     192910124 B   cxx   --   ---xx   flac  0.7469  gd1987-09-15s2t03.flac
     9:41.213     167389484 B   cxx   --   ---xx   flac  0.7467  gd1987-09-15s2t04.flac
     6:39.613     115088684 B   cxx   --   ---xx   flac  0.7152  gd1987-09-15s2t05.flac
     8:52.636     153399236 B   cxx   --   ---xx   flac  0.6989  gd1987-09-15s2t06.flac
     4:29.400      77587244 B   cxx   --   ---xx   flac  0.7372  gd1987-09-15s2t07.flac
     5:00.467      86534444 B   cxx   --   ---xx   flac  0.7484  gd1987-09-15s2t08.flac
     8:40.600     149932844 B   cxx   --   ---xx   flac  0.7297  gd1987-09-15s2t09.flac
     9:26.960     163284524 B   cxx   --   ---xx   flac  0.7564  gd1987-09-15s2t10.flac
     1:08.827      19822124 B   cxx   --   ---xx   flac  0.6940  gd1987-09-15s2t11.flac
     7:27.833     128975924 B   cxx   --   ---xx   flac  0.7262  gd1987-09-15s2t12.flac
   151:30.229    2617986886 B                            0.7326  (23 files)

No errors occured.
Show Checksums
flac-md5
a790c36cf6dc6aa4e2b8a64d4db8c2e8 *gd1987-09-15s1t01.flac
aedd94f55588ab6ec889266eb71e64e7 *gd1987-09-15s1t02.flac
1485da7bd2f0c843715cdbd267192607 *gd1987-09-15s1t03.flac
8f37d2a4a4e0f61cc06ec97c6955ab78 *gd1987-09-15s1t04.flac
0f25cd8cf61808dee235f901aff2b458 *gd1987-09-15s1t05.flac
3fa0d855f792784adf3966943e02ccd8 *gd1987-09-15s1t06.flac
3211860e39a13c15fec655b52390a12b *gd1987-09-15s1t07.flac
ffbaefcebe626225643117f7fba85b72 *gd1987-09-15s1t08.flac
8941de2f38ececcd2cdcb01cc8988eda *gd1987-09-15s1t09.flac
2be249da09f2c5154504874273bc3de0 *gd1987-09-15s1t10.flac
5e7fb86386f0c3da6240a804f867c1fa *gd1987-09-15s1t11.flac
80a1eb6ea45fa5814d1cb9e9e78747a2 *gd1987-09-15s2t01.flac
5afd7cd88d7719a53fc8669086cd9f9e *gd1987-09-15s2t02.flac
e0b6eec3efd7c4d091e3df2a46b8afe3 *gd1987-09-15s2t03.flac
b5b15ae5815db7e3c5ff74b0a8fea9c1 *gd1987-09-15s2t04.flac
fac4079f2658bbecf946aa0410780f9a *gd1987-09-15s2t05.flac
09ab02da794114e5290483a94d71e2f1 *gd1987-09-15s2t06.flac
284ef13a690afcff91a55541a0b83478 *gd1987-09-15s2t07.flac
a72f13af0c51408d6aaa07484357ee87 *gd1987-09-15s2t08.flac
c7eaa87fae81d984554d9dbce04e6653 *gd1987-09-15s2t09.flac
eba41694fa265b124d6cac6969da1088 *gd1987-09-15s2t10.flac
257e059c7eecb386ab7ae85e9bb3c346 *gd1987-09-15s2t11.flac
6fe1b7cd5306cbd29eb3be8228246dea *gd1987-09-15s2t12.flac
ffp
gd1987-09-15s1t01.flac:175f8b2d3002f77d13cb253f4d1c360c
gd1987-09-15s1t02.flac:0e27bd99241f1becaec84f262e2eb3ed
gd1987-09-15s1t03.flac:46d2a0dca8817de1e1cddb1ba2d4a36f
gd1987-09-15s1t04.flac:e43bcf57ee8431b663942f52c5b35e42
gd1987-09-15s1t05.flac:75701a2876757c783602d9c4f625dbbd
gd1987-09-15s1t06.flac:d92d8b67abd977f5b6481474d821cde1
gd1987-09-15s1t07.flac:c6f0df50b0c1fc5a21c13934a41d8abf
gd1987-09-15s1t08.flac:1809a7608ab519b8bf17c940296e9929
gd1987-09-15s1t09.flac:4d35afa075e1bbdd8f1ac31c5c3a87d1
gd1987-09-15s1t10.flac:3f63fa0918605216bd6b76495109d785
gd1987-09-15s1t11.flac:68e2ce773b05d50d591880c3dd84d9a6
gd1987-09-15s2t01.flac:831f0e619b84b5bab4a5e525bcaabb30
gd1987-09-15s2t02.flac:c9035f6bb9ca39c11ee8c5a342428878
gd1987-09-15s2t03.flac:62c774a65e7614724fb96b59de1a5533
gd1987-09-15s2t04.flac:a9d1b2a94733f1872431e08caecb28ca
gd1987-09-15s2t05.flac:6843417222daf693b35359871c3d434c
gd1987-09-15s2t06.flac:5436958055e1b2a2066a1521b50bf0a3
gd1987-09-15s2t07.flac:2596b6df1b1fad73b0752774a128a820
gd1987-09-15s2t08.flac:ec3ebe22377ed5946c1210cf0b8dde5c
gd1987-09-15s2t09.flac:69d9728ff6645f42315a65ffd8ee76fd
gd1987-09-15s2t10.flac:cd7d7e432af485e08a0495812f962528
gd1987-09-15s2t11.flac:b23e607d1a5bac494ab1e93332c6ae52
gd1987-09-15s2t12.flac:7a58f7047c3c824983e1bf19eabbffaf

Comments
Add Comment
Other Sources (comments)
AUD (Schoeps CMC... (0) SBD:CM>DATs>CDRs (0) SBD -> Cassette Master ->... (0) flac16; Recording... (0) flac16; taper : Joe... (0) Taper: M.Laurentus Taper... (0)
Date User Comment