Browse Collections Artists Sources   Search Dates

Add Show    List Management    Help


Grateful Dead 09/16/87
Madison Square Garden, New York, NY
Comments Add Comment    Source Collectors    Add to Collection    Add to Want List    History
Source # 115934 Other Sources
Entered by andrew
Checksums ffp , flac-md5
Disc Counts 0 / 0
Media Size Compressed: 2.95 GB (3168438038 bytes)
Date Circulated
Date Added
09/05/2011
09/05/2011
Source Summary flac24; 24bit/48kHz file set: OTS AUD: 2x Nakamichi CM300 w/CP4 shotguns > Sony TC-D5M > Maxell MX90's, w/no Dolby. Taped by Ted Gidley. Transfer: MAC > Nakamichi CR-5A > Edirol FA-66 > Wavelab > TLH > FLAC 2448 tagged. Transfer by Andrew F. 09/2011 
  Archive
Source Information - Download Text | Download Zip
GRATEFUL DEAD
Madison Square Garden
New York NY
09-16-1987

24bit/48kHz file set

Babatunde Olatunji And His Drums Of Passion

baba01 intro
baba02 Ajaja
baba03 Akiwowo
baba04 Kiyakiya
baba05 speaking
baba06 Yembela
baba07 Ilere

s1t01 Touch of Grey >
s1t02 Scarlet Begonias
s1t03 Little Red Rooster
s1t04 Dire Wolf
s1t05 My Brother Esau
s1t06 High Time
s1t07 Let it Grow >
s1t08 Don't Ease Me In

s2t01 Bertha >
s2t02 Greatest Story Ever Told >
s2t03 Devil with the Blue Dress Medley
s2t04 He's Gone >
s2t05 Drums >
s2t06 Space >
s2t07 Truckin' >
s2t08 Wharf Rat >
s2t09 Throwing Stones >
s2t10 Not Fade Away >
s2t11 crowd chant >
s2t12 Encore: We Bid You Goodnight theme >
s2t13 Encore: Black Muddy River

OTS AUD: 2x Nakamichi CM300 w/CP4 shotguns > Sony TC-D5M >
Maxell MX90's, w/no Dolby. Taped by Ted Gidley.

Transfer: MAC > Nakamichi CR-5A > Edirol FA-66 > Wavelab >
TLH > FLAC 2448 tagged. Transfer by Andrew F. 09/2011

Note: patches covering tape flips as follows...
ID-90164, crowd end of Scarlet to first 5 seconds Rooster.
Next in line MAC, in Space.
ID-82365, 25 seconds of crowd chant after NFA.

    length     expanded size    cdr  WAVE problems  fmt   ratio  filename
     0:29.507       8497964 B   cxx   --   ---xx   flac  0.6990  gd1987-09-16baba01.flac
     4:26.960      76884524 B   cxx   --   ---xx   flac  0.7348  gd1987-09-16baba02.flac
     5:01.187      86741804 B   cxx   --   ---xx   flac  0.7414  gd1987-09-16baba03.flac
     3:48.147      65706284 B   cxx   --   ---xx   flac  0.7404  gd1987-09-16baba04.flac
     2:01.413      34967084 B   cxx   --   ---xx   flac  0.7148  gd1987-09-16baba05.flac
     8:01.400     138643244 B   cxx   --   ---xx   flac  0.7378  gd1987-09-16baba06.flac
     5:28.309      94553048 B   cxx   --   ---xx   flac  0.7343  gd1987-09-16baba07.flac
     6:41.787     115714604 B   cxx   --   ---xx   flac  0.7470  gd1987-09-16s1t01.flac
     9:18.613     160880684 B   cxx   --   ---xx   flac  0.7447  gd1987-09-16s1t02.flac
     9:40.628     167220920 B   cxx   --   ---xx   flac  0.7444  gd1987-09-16s1t03.flac
     4:22.893      75713324 B   cxx   --   ---xx   flac  0.7368  gd1987-09-16s1t04.flac
     4:58.413      85943084 B   cxx   --   ---xx   flac  0.7384  gd1987-09-16s1t05.flac
     7:18.400     126259244 B   cxx   --   ---xx   flac  0.7220  gd1987-09-16s1t06.flac
    12:33.707     217067564 B   cxx   --   ---xx   flac  0.7442  gd1987-09-16s1t07.flac
     3:30.309      60569120 B   cxx   --   ---xx   flac  0.7479  gd1987-09-16s1t08.flac
     7:27.160     128782124 B   cxx   --   ---xx   flac  0.7584  gd1987-09-16s2t01.flac
     3:51.573      66693164 B   cxx   --   ---xx   flac  0.7641  gd1987-09-16s2t02.flac
     3:59.573      68997164 B   cxx   --   ---xx   flac  0.7649  gd1987-09-16s2t03.flac
    13:46.800     238118444 B   cxx   --   ---xx   flac  0.7409  gd1987-09-16s2t04.flac
    10:15.973     177400364 B   cxx   --   ---xx   flac  0.7218  gd1987-09-16s2t05.flac
     9:38.833     166704002 B   cxx   --   ---xx   flac  0.6936  gd1987-09-16s2t06.flac
     7:28.160     129070124 B   cxx   --   ---xx   flac  0.7532  gd1987-09-16s2t07.flac
    10:32.373     182123564 B   cxx   --   ---xx   flac  0.7446  gd1987-09-16s2t08.flac
     9:33.333     165120044 B   cxx   --   ---xx   flac  0.7549  gd1987-09-16s2t09.flac
     8:48.760     152282924 B   cxx   --   ---xx   flac  0.7508  gd1987-09-16s2t10.flac
     2:05.692      36199436 B   cxx   --   ---xx   flac  0.7392  gd1987-09-16s2t11.flac
     1:35.347      27459884 B   cxx   --   ---xx   flac  0.7541  gd1987-09-16s2t12.flac
     6:36.265     114124304 B   cxx   --   ---xx   flac  0.7548  gd1987-09-16s2t13.flac
   183:21.517    3168438038 B                            0.7408  (28 files)

No errors occured.
Show Checksums
ffp
gd1987-09-16baba01.flac:ac7743dcce08f98475b6b7b5603ad925
gd1987-09-16baba02.flac:b8a4c5f8bc2dade8603d7daeb0237f6b
gd1987-09-16baba03.flac:2c97404744ebe23dfbd8f9862ab360c1
gd1987-09-16baba04.flac:cd8c0079d93e6335c22840fc1fca6f7e
gd1987-09-16baba05.flac:7d51a1b76bd14f4772109a596c97b7e9
gd1987-09-16baba06.flac:b80892965a0b9480b4ccb8a8a8b10350
gd1987-09-16baba07.flac:048c278a905c0c15b7284e442a349ea8
gd1987-09-16s1t01.flac:f7b08cc9c5fb8ae99630e56cf721d0b7
gd1987-09-16s1t02.flac:75a21c40e470e1afc9433710c17e9809
gd1987-09-16s1t03.flac:ea8243c4b0d4a4db14b2f42655b3e557
gd1987-09-16s1t04.flac:f77c037b43d40b226b5f68894892fb17
gd1987-09-16s1t05.flac:1f7c8ce0fd1b04c23b62b643b58d86bb
gd1987-09-16s1t06.flac:ffe2dca8ede49b6a07c3d2d333cd2027
gd1987-09-16s1t07.flac:94514244d46cdacd76ab7567122f0f81
gd1987-09-16s1t08.flac:538acd52e588222ff25c382d37d884c9
gd1987-09-16s2t01.flac:9bf26b7e738d5c14f1466cba4602434a
gd1987-09-16s2t02.flac:bdb3b8a8e27afc8ad08e25b1eb0faa96
gd1987-09-16s2t03.flac:9565d2841d885eb5ee1e059d5bc72cd1
gd1987-09-16s2t04.flac:2d36acc595b529d038db142a76802952
gd1987-09-16s2t05.flac:6070c5b3e411dbd842c763183f09e89f
gd1987-09-16s2t06.flac:ec6895d43b9de47c3ce9307d33f6958f
gd1987-09-16s2t07.flac:10bd918b3413b01e9217967532111fcb
gd1987-09-16s2t08.flac:a7698fdcb1f24072b5bfe7909843097b
gd1987-09-16s2t09.flac:a501abe109af18698c2364636265e8d0
gd1987-09-16s2t10.flac:20ee6dc87b9adca3435df771a7d62edf
gd1987-09-16s2t11.flac:81ba59629908c69903d68bbb31711538
gd1987-09-16s2t12.flac:01eb891f6541e9bd8543a52cc6b3004e
gd1987-09-16s2t13.flac:06c60f388d716f002433453437ce41a9
flac-md5
8683aa020d2fd01d91c48d45a4fce62c *gd1987-09-16baba01.flac
f89a9faebe49982077ac502c0451af14 *gd1987-09-16baba02.flac
41882b4aaef052d92432f768eda2305d *gd1987-09-16baba03.flac
3b8688675b9d1ba501dcdec9b7534a4e *gd1987-09-16baba04.flac
9ea79886f65eb112cfa4a95383cab391 *gd1987-09-16baba05.flac
2d8e8c76b606177bd4b2111cb314918e *gd1987-09-16baba06.flac
b24a70b6f65a3a72c0736aaf5511ecca *gd1987-09-16baba07.flac
ea8747466f51abbf085eaa1572a0d9aa *gd1987-09-16s1t01.flac
7c33372f62db37093dc1f94bd108257f *gd1987-09-16s1t02.flac
97a2da003b60f6e28c45c2dab1bf173d *gd1987-09-16s1t03.flac
627a2a2d00851e8d0ab5a3df797c20fa *gd1987-09-16s1t04.flac
543c42f5a2292ab320e76217ea30738b *gd1987-09-16s1t05.flac
d61e1bd327c40303c1cf6a505773b650 *gd1987-09-16s1t06.flac
0190eceb21a2d384ba53eac2cd98f0ef *gd1987-09-16s1t07.flac
cd0ed642731fce5d5d34688d974a3c40 *gd1987-09-16s1t08.flac
39453201d8141f782046625801f39c8a *gd1987-09-16s2t01.flac
96c6755a52ca6d9d47a93544964ee881 *gd1987-09-16s2t02.flac
9b3585673c67a4834f0ab75153c891d8 *gd1987-09-16s2t03.flac
7fb084824772c20f58c499b1845df30b *gd1987-09-16s2t04.flac
98b16a2abd2ea62f5bdcf2a12158833b *gd1987-09-16s2t05.flac
0d9ad10c0f029e81a7cdea9635ef60b0 *gd1987-09-16s2t06.flac
4c87ef787cac34934b15ddf7e1146b2b *gd1987-09-16s2t07.flac
2273073ccfaea004ceb3fd99a140c633 *gd1987-09-16s2t08.flac
7dd2249a1c07e90f6d313907aa345a8b *gd1987-09-16s2t09.flac
41739cbc95fb5406e80cf89347da1685 *gd1987-09-16s2t10.flac
6ab191d0e2c6ffec0608921945ff97fa *gd1987-09-16s2t11.flac
949e3305607a6b864379fd88daf893d9 *gd1987-09-16s2t12.flac
0a00338fdb5fc280e39ec56c9b225d35 *gd1987-09-16s2t13.flac

Comments
Add Comment
Other Sources (comments)
AUD (Schoeps CMC... (0) Partial 2nd Set;... (1) SBD > MC > C > DAT > CD >... (0) flac16; Source:... (0) flac16; Recording... (0) flac16; taper : Joe... (0) flac16; Master:... (1) flac16; Taper: M.... (0) flac16; Source Info:... (0)
Date User Comment