Browse Collections Artists Sources   Search Dates

Add Show    List Management    Help


Grateful Dead 09/18/87
Madison Square Garden, New York, NY
Comments Add Comment    Source Collectors    Add to Collection    Add to Want List    History
Source # 116004 Other Sources
Entered by andrew
Checksums flac-md5 , ffp
Disc Counts 0 / 0
Media Size Compressed: 2.2 GB (2367568908 bytes)
Date Circulated
Date Added
09/11/2011
09/11/2011
Source Summary flac24; OTS AUD: 2x Nakamichi CM300 w/CP4 shotguns > Sony TC-D5M > Maxell MX90's, w/no Dolby. Taped by Ted Gidley. Transfer: MAC > Nakamichi CR-5A > Edirol FA-66 > Wavelab > TLH > FLAC 2448 tagged. Transfer by Andrew F. 09/2011 
  Archive
Source Information - Download Text | Download Zip
GRATEFUL DEAD
Madison Square Garden
New York NY
09-18-1987

24bit/48kHz file set

s1t01 crowd & tuning
s1t02 Hell in a Bucket >
s1t03 Sugaree
s1t04 Walkin' Blues
s1t05 Candyman
s1t06 When I Paint My Masterpiece
s1t07 Birdsong

s2t01 crowd & tuning
s2t02 Shakedown Street >
s2t03 Women Are Smarter
s2t04 Terrapin >
s2t05 Drums >
s2t06 Space >
s2t07 Goin' Down the Road >
s2t08 All Along the Watchtower >
s2t09 Morning Dew >
s2t10 Good Lovin' > La Bamba > Good Lovin'
s2t11 Encore: Knockin' on Heaven's Door

OTS AUD: 2x Nakamichi CM300 w/CP4 shotguns > Sony TC-D5M >
Maxell MX90's, w/no Dolby. Taped by Ted Gidley.

Transfer: MAC > Nakamichi CR-5A > Edirol FA-66 > Wavelab >
TLH > FLAC 2448 tagged. Transfer by Andrew F. 09/2011

Note: Patch from next in line MAC covers tape flip in Space.
ID-90241 provides ten seconds of crowd noise after Birdsong.

    length     expanded size    cdr  WAVE problems  fmt   ratio  filename
     2:49.560      48833324 B   cxx   --   ---xx   flac  0.7034  gd1987-09-18s1t01.flac
     6:10.733     106771244 B   cxx   --   ---xx   flac  0.7509  gd1987-09-18s1t02.flac
    10:26.707     180491564 B   cxx   --   ---xx   flac  0.7409  gd1987-09-18s1t03.flac
     6:23.467     110438444 B   cxx   --   ---xx   flac  0.7448  gd1987-09-18s1t04.flac
     6:48.947     117776684 B   cxx   --   ---xx   flac  0.7358  gd1987-09-18s1t05.flac
     4:19.160      74638124 B   cxx   --   ---xx   flac  0.7527  gd1987-09-18s1t06.flac
    10:21.709     179052278 B   cxx   --   ---xx   flac  0.7390  gd1987-09-18s1t07.flac
     0:58.920      16969004 B   cxx   --   ---xx   flac  0.7201  gd1987-09-18s2t01.flac
    12:11.040     210539564 B   cxx   --   ---xx   flac  0.7485  gd1987-09-18s2t02.flac
     7:06.800     122918444 B   cxx   --   ---xx   flac  0.7521  gd1987-09-18s2t03.flac
    13:21.920     230953004 B   cxx   --   ---xx   flac  0.7375  gd1987-09-18s2t04.flac
     8:13.053     141999404 B   cxx   --   ---xx   flac  0.7148  gd1987-09-18s2t05.flac
     8:07.303     140343452 B   cxx   --   ---xx   flac  0.6861  gd1987-09-18s2t06.flac
     6:06.067     105427244 B   cxx   --   ---xx   flac  0.7492  gd1987-09-18s2t07.flac
     4:48.813      83178284 B   cxx   --   ---xx   flac  0.7566  gd1987-09-18s2t08.flac
    11:10.120     192994604 B   cxx   --   ---xx   flac  0.7350  gd1987-09-18s2t09.flac
     8:36.987     148892204 B   cxx   --   ---xx   flac  0.7520  gd1987-09-18s2t10.flac
     8:59.417     155352038 B   cxx   --   ---xx   flac  0.7235  gd1987-09-18s2t11.flac
   137:00.723    2367568908 B                            0.7367  (18 files)

No errors occured.
Show Checksums
flac-md5
e83eddb20e6521c556e52fc6eadaf5e6 *gd1987-09-18s1t01.flac
e479996cf1d1d54b66c2feae7a812a3f *gd1987-09-18s1t02.flac
8216b4a17ef0e900080cb40933e65a2d *gd1987-09-18s1t03.flac
4a180d333e8fe72e6b725a28cb79b15c *gd1987-09-18s1t04.flac
c9534d75d427cdcbd2394df7c135c97c *gd1987-09-18s1t05.flac
402cf33c2651faceca09fd6fedf8424d *gd1987-09-18s1t06.flac
87bf4b7f0eba4904257f1639524785d2 *gd1987-09-18s1t07.flac
dff0476f3cecb29a7e026430acca40f6 *gd1987-09-18s2t01.flac
741109c46342a87fe53f189cc985f983 *gd1987-09-18s2t02.flac
5194dd51ab436d9896d7613931371852 *gd1987-09-18s2t03.flac
5e8ab9cd3b4a3502d76defe3fee57953 *gd1987-09-18s2t04.flac
454d506ca19ef8ee01c4934f6e982f33 *gd1987-09-18s2t05.flac
a1084fe9881263a2a16ea36156a3452d *gd1987-09-18s2t06.flac
eeb84b2df8131a42b1fbfc4763c90a3f *gd1987-09-18s2t07.flac
69060cc31a90a5b32618fb3b950d3fe0 *gd1987-09-18s2t08.flac
928edbdf5f9710f24434563cb2e7875c *gd1987-09-18s2t09.flac
a018d748df7cf0602f24bc8a9dd4362a *gd1987-09-18s2t10.flac
50d5fb3382a7dedd98f2d29e5cdbc72b *gd1987-09-18s2t11.flac
ffp
gd1987-09-18s1t01.flac:f7e24fab45d139742819efc43feb61d8
gd1987-09-18s1t02.flac:15c11523c8266b8e5a9d0955a736bf17
gd1987-09-18s1t03.flac:30eb6d75cb30e16fe252afd5796a0e33
gd1987-09-18s1t04.flac:a9369074f3a76832549ed1eb9bb65122
gd1987-09-18s1t05.flac:39e33b539ff707f3cab70b8a087ce406
gd1987-09-18s1t06.flac:ec7db98765efa29877e3ba77e5ca6463
gd1987-09-18s1t07.flac:707d5d47670e68410be76804e8dbd1bb
gd1987-09-18s2t01.flac:580be56db275d6dec8e008e04d414cee
gd1987-09-18s2t02.flac:783e30906f501a19d0fae42b72fa064f
gd1987-09-18s2t03.flac:fe920f5f27dd98d274603e846583f00f
gd1987-09-18s2t04.flac:ca077e4901cfe40a17411394a455ac62
gd1987-09-18s2t05.flac:b42aa07d0d881d9610babcadc732eaf2
gd1987-09-18s2t06.flac:9171bd8268c52a150820ed72d62f7f42
gd1987-09-18s2t07.flac:ac4bbdf46e3f0b2c46716d604da7f395
gd1987-09-18s2t08.flac:6af1fec79037fe4a31b2340eee2413d8
gd1987-09-18s2t09.flac:584a9aad2f9d8b13342e34e4a3596de5
gd1987-09-18s2t10.flac:513c9fc5d653bb68abd2a3c183b101e0
gd1987-09-18s2t11.flac:8d2298c831cf458bfc008f6b716ca497

Comments
Add Comment
Other Sources (comments)
SBD; via David Finney; see... (6) sbd PCM > Dat x3 > wav >... (0) MattMan remaster of (3) Vault PCM Master->DAT.... (0) Soundboard (Healy Ultra... (7) flac16/48; Master... (4) Most likely lineage:... (0) flac16; Source:... (0) flac16; taper : Joe... (0) flac16; matrix of... (5) flac16; Master:... (0) flac16; shnid=20025... (2) flac16; Taper: M.... (0) flac16; 3 Source... (0) flac16; Matrix from... (0) flac16; Set 1 SBD:... (1) flac16; Matrix 3... (0) DTS-Audio-CD 5.1... (0) flac16/48kHz; 5.1... (0) flac24; Recording... (0) flac16; Recording... (0)
Date User Comment