Browse Collections Artists Sources   Search Dates

Add Show    List Management    Help


Grateful Dead 10/27/80
Radio City Music Hall, New York, NY
Comments Add Comment    Source Collectors    Add to Collection    Add to Want List    History
Source # 116195 Other Sources
Entered by andrew
Checksums ffp , flac-md5
Disc Counts 0 / 0
Media Size Compressed: 3.21 GB (3443244084 bytes)
Date Circulated
Date Added
09/29/2011
09/29/2011
Source Summary flac2448: AUD: 2x Nakamichi CM300/CP1 cardioids > Nakamichi 550 > Maxell UDXLII. Set up in second mezzanine front row, mics hand-held by Tim Friend, recording by Joe Morrone. Transfer: MAC > Nakamichi CR-5A > Edirol FA-66 > Wavelab > CD-Wave > TLH > FLAC 2448 tagged. Transfer by Andrew F. 09/2011 
  Archive
Source Information - Download Text | Download Zip
GRATEFUL DEAD
Radio City Music Hall
New York NY
10-27-1980

24bit/48kHz file-set

s1t01 crowd & tuning
s1t02 The Race is On
s1t03 I've Been All Around this World
s1t04 Monkey & the Engineer
s1t05 To Lay Me Down
s1t06 Heaven Help the Fool
s1t07 Rosalie McFall
s1t08 On the Road Again
s1t09 Birdsong
s1t10 Ripple

s2t01 Alabama Getaway >
s2t02 Greatest Story Ever Told
s2t03 Friend of the Devil
s2t04 Minglewood Blues
s2t05 Peggy-O
s2t06 Passenger
s2t07 Row Jimmy
s2t08 Lost Sailor >
s2t09 Saint of Circumstance >
s2t10 Deal >

s3t01 Truckin' >
s3t02 Scarlet Begonias >
s3t03 Fire on the Mountain >
s3t04 Drums >
s3t05 Space >
s3t06 Wharf Rat >
s3t07 I Need a Miracle >
s3t08 Bertha >
s3t09 Johnny B. Goode
s3t10 Encore: Casey Jones

AUD: 2x Nakamichi CM300/CP1 cardioids > Nakamichi 550 > Maxell UDXLII.
Set up in second mezzanine front row, mics hand-held by Tim Friend,
recording by Joe Morrone.

Transfer: MAC > Nakamichi CR-5A > Edirol FA-66 > Wavelab > CD-Wave >
TLH > FLAC 2448 tagged. Transfer by Andrew F. 09/2011

Note: Patches from ID-101293 as follows: Alabama Getaway 0:00 > 0:23,
Saint of Circumstance 0:00 > 0:19, and Space 0:11 > 0:45.

d304807bb4a382203f538892432835bf *gd1980-10-27s1t01.flac
9eeff972d20beea8d097df62747b3bf0 *gd1980-10-27s1t02.flac
f4ad64d6791e6579d379954f44a53f39 *gd1980-10-27s1t03.flac
1d58c9be0e205b962d0c00f808211243 *gd1980-10-27s1t04.flac
82b3e215f617d9545d9a202e5eb85617 *gd1980-10-27s1t05.flac
eb82b36279365559e900d5f741f0fada *gd1980-10-27s1t06.flac
61407d01bc91d9d921ab389b2664cf96 *gd1980-10-27s1t07.flac
3ac7e4d0af05f7ecc3b052cef39895ac *gd1980-10-27s1t08.flac
8588a553ad8147f340ff9b74d31bdb37 *gd1980-10-27s1t09.flac
d821ac02b318d9dd1624f18d79d160f6 *gd1980-10-27s1t10.flac
2221ff52d54055fc2bdd7403d36c944d *gd1980-10-27s2t01.flac
090db7179a26628d0fad6d7bcf282af6 *gd1980-10-27s2t02.flac
1bf75ff80de5e9f9f31d2d3f23170c42 *gd1980-10-27s2t03.flac
650f15e1b6da40c9d6359a2a3daad0f3 *gd1980-10-27s2t04.flac
58bd4d2ec21230f15a7198ee9c841cc6 *gd1980-10-27s2t05.flac
5beab8bed413081e6e3e39cd34cad1c1 *gd1980-10-27s2t06.flac
1b2312387e72cd534158e04fcad357bd *gd1980-10-27s2t07.flac
afb32ca5daa399de1dd5f2b503954211 *gd1980-10-27s2t08.flac
bedd0cbeaf579106dcb872efc1b80f3c *gd1980-10-27s2t09.flac
2b8e82b83003d949baeada23ff07bf26 *gd1980-10-27s2t10.flac
6ab232ee535aa8b4b7c4b51e713177d2 *gd1980-10-27s3t01.flac
be9132e3e49a0f3402f6c34165de63a2 *gd1980-10-27s3t02.flac
f15be8fe158ee42441f2a32e6082d316 *gd1980-10-27s3t03.flac
cfc5ffc88047850826887cee5b0c341f *gd1980-10-27s3t04.flac
6531b8b472b2a9e5d8d2e2e5a059c6f6 *gd1980-10-27s3t05.flac
98c0402c39aee25d2adf2355553ea060 *gd1980-10-27s3t06.flac
80f8bd02739fdff9c6199aa2da642f5d *gd1980-10-27s3t07.flac
a5a4d93dfd6649aef3139e7ade83ef72 *gd1980-10-27s3t08.flac
4689a6b82607e8cfc87a8d11a2652470 *gd1980-10-27s3t09.flac
0fd472d21dffddbfbca14ac5772433a9 *gd1980-10-27s3t10.flac

gd1980-10-27s1t01.flac:4bbf76a84028fc2a0d360c8f458403c5
gd1980-10-27s1t02.flac:94e57daaf622c7cea19f231ee423271e
gd1980-10-27s1t03.flac:7ca0e274820dd9c15cf6fde5bf1e64b5
gd1980-10-27s1t04.flac:6350d07194599fe0ccc942d54cb75dda
gd1980-10-27s1t05.flac:3ade36d9f384482bd67d7b42106826cf
gd1980-10-27s1t06.flac:338e966e21bfeb16d41a919e3b122a60
gd1980-10-27s1t07.flac:fad3f4ad9168f37df3cacda0b4ba5b86
gd1980-10-27s1t08.flac:b7271e60fa70745059511eb0f349faa1
gd1980-10-27s1t09.flac:f7aa503e17d7e7823d90fb38c600ccad
gd1980-10-27s1t10.flac:8bb26e8d22dd006e6a3989405eed19eb
gd1980-10-27s2t01.flac:fa21526db6bc35dd00f2a5d79f03df0c
gd1980-10-27s2t02.flac:13fb6a958beec72703695fe22dcf8ea6
gd1980-10-27s2t03.flac:fcc75543fb60a3c6803ed6b027df598e
gd1980-10-27s2t04.flac:597036522cf09b4a2cf5de7cc52302fa
gd1980-10-27s2t05.flac:6fd82da015ba69fc3fa8418f9b5491aa
gd1980-10-27s2t06.flac:ba39a90761d61e9c61e13195b785b6fd
gd1980-10-27s2t07.flac:5dae5ce9043125dc9e03617ba72c714e
gd1980-10-27s2t08.flac:db70bbb6cc711b94849941d9c749c0b3
gd1980-10-27s2t09.flac:5fa13cce67f2fd35383377efc047edcf
gd1980-10-27s2t10.flac:27608d5c4dd2ac40507a20222bc6a7d8
gd1980-10-27s3t01.flac:db6878eaa1f90e2c594e54858f31ae1f
gd1980-10-27s3t02.flac:7ee58d742b9b23232716228386e23f46
gd1980-10-27s3t03.flac:2a967dc08cd2115bcb03017a292b0f3f
gd1980-10-27s3t04.flac:c61f04004e0d08cec3b8f93b0fa6bc8c
gd1980-10-27s3t05.flac:f5cd77d663fd05729ea73a713b41d044
gd1980-10-27s3t06.flac:6eecd659aff31b58eb187332ddf3d63a
gd1980-10-27s3t07.flac:48251f1590ae7fb167afc8f03a2d6ec8
gd1980-10-27s3t08.flac:1167e0bd59c43d53b6d70c74ab9a86f9
gd1980-10-27s3t09.flac:02a62395e7b1f363cb13ebb3c45b7016
gd1980-10-27s3t10.flac:81aaaa04401e2b7b8fbf9a135e78f9c0

    length     expanded size    cdr  WAVE problems  fmt   ratio  filename
     2:07.253      36649004 B   cxx   --   ---xx   flac  0.6929  gd1980-10-27s1t01.flac
     3:46.627      65268524 B   cxx   --   ---xx   flac  0.7229  gd1980-10-27s1t02.flac
     6:06.960     105684524 B   cxx   --   ---xx   flac  0.7085  gd1980-10-27s1t03.flac
     3:32.440      61182764 B   cxx   --   ---xx   flac  0.7222  gd1980-10-27s1t04.flac
     9:18.173     160753964 B   cxx   --   ---xx   flac  0.7120  gd1980-10-27s1t05.flac
     7:21.667     127200044 B   cxx   --   ---xx   flac  0.7214  gd1980-10-27s1t06.flac
     4:04.507      70417964 B   cxx   --   ---xx   flac  0.7221  gd1980-10-27s1t07.flac
     2:56.667      50880044 B   cxx   --   ---xx   flac  0.7254  gd1980-10-27s1t08.flac
    11:14.853     194357804 B   cxx   --   ---xx   flac  0.7309  gd1980-10-27s1t09.flac
     4:46.046      82381184 B   cxx   --   ---xx   flac  0.7327  gd1980-10-27s1t10.flac
     4:51.133      83846444 B   cxx   --   ---xx   flac  0.7261  gd1980-10-27s2t01.flac
     4:20.173      74929964 B   cxx   --   ---xx   flac  0.7240  gd1980-10-27s2t02.flac
    10:21.840     179089964 B   cxx   --   ---xx   flac  0.7103  gd1980-10-27s2t03.flac
     7:13.973     124984364 B   cxx   --   ---xx   flac  0.7230  gd1980-10-27s2t04.flac
     7:10.027     123847724 B   cxx   --   ---xx   flac  0.7009  gd1980-10-27s2t05.flac
     5:51.893     101345324 B   cxx   --   ---xx   flac  0.7249  gd1980-10-27s2t06.flac
    10:29.027     181159724 B   cxx   --   ---xx   flac  0.7199  gd1980-10-27s2t07.flac
     6:15.547     108157484 B   cxx   --   ---xx   flac  0.7150  gd1980-10-27s2t08.flac
     6:34.120     113506604 B   cxx   --   ---xx   flac  0.7380  gd1980-10-27s2t09.flac
     6:35.129     113797208 B   cxx   --   ---xx   flac  0.7433  gd1980-10-27s2t10.flac
     8:15.813     142794284 B   cxx   --   ---xx   flac  0.7454  gd1980-10-27s3t01.flac
     8:17.213     143197484 B   cxx   --   ---xx   flac  0.7401  gd1980-10-27s3t02.flac
     9:18.147     160746284 B   cxx   --   ---xx   flac  0.7374  gd1980-10-27s3t03.flac
    12:19.067     212851244 B   cxx   --   ---xx   flac  0.7220  gd1980-10-27s3t04.flac
     4:49.760      83450924 B   cxx   --   ---xx   flac  0.6846  gd1980-10-27s3t05.flac
    10:10.693     175879724 B   cxx   --   ---xx   flac  0.7130  gd1980-10-27s3t06.flac
     3:45.227      64865324 B   cxx   --   ---xx   flac  0.7378  gd1980-10-27s3t07.flac
     6:23.947     110576684 B   cxx   --   ---xx   flac  0.7376  gd1980-10-27s3t08.flac
     4:29.027      77479724 B   cxx   --   ---xx   flac  0.7442  gd1980-10-27s3t09.flac
     6:28.756     111961784 B   cxx   --   ---xx   flac  0.7342  gd1980-10-27s3t10.flac
   199:15.704    3443244084 B                            0.7242  (30 files)

No errors occured.
Show Checksums
ffp
gd1980-10-27s1t01.flac:4bbf76a84028fc2a0d360c8f458403c5
gd1980-10-27s1t02.flac:94e57daaf622c7cea19f231ee423271e
gd1980-10-27s1t03.flac:7ca0e274820dd9c15cf6fde5bf1e64b5
gd1980-10-27s1t04.flac:6350d07194599fe0ccc942d54cb75dda
gd1980-10-27s1t05.flac:3ade36d9f384482bd67d7b42106826cf
gd1980-10-27s1t06.flac:338e966e21bfeb16d41a919e3b122a60
gd1980-10-27s1t07.flac:fad3f4ad9168f37df3cacda0b4ba5b86
gd1980-10-27s1t08.flac:b7271e60fa70745059511eb0f349faa1
gd1980-10-27s1t09.flac:f7aa503e17d7e7823d90fb38c600ccad
gd1980-10-27s1t10.flac:8bb26e8d22dd006e6a3989405eed19eb
gd1980-10-27s2t01.flac:fa21526db6bc35dd00f2a5d79f03df0c
gd1980-10-27s2t02.flac:13fb6a958beec72703695fe22dcf8ea6
gd1980-10-27s2t03.flac:fcc75543fb60a3c6803ed6b027df598e
gd1980-10-27s2t04.flac:597036522cf09b4a2cf5de7cc52302fa
gd1980-10-27s2t05.flac:6fd82da015ba69fc3fa8418f9b5491aa
gd1980-10-27s2t06.flac:ba39a90761d61e9c61e13195b785b6fd
gd1980-10-27s2t07.flac:5dae5ce9043125dc9e03617ba72c714e
gd1980-10-27s2t08.flac:db70bbb6cc711b94849941d9c749c0b3
gd1980-10-27s2t09.flac:5fa13cce67f2fd35383377efc047edcf
gd1980-10-27s2t10.flac:27608d5c4dd2ac40507a20222bc6a7d8
gd1980-10-27s3t01.flac:db6878eaa1f90e2c594e54858f31ae1f
gd1980-10-27s3t02.flac:7ee58d742b9b23232716228386e23f46
gd1980-10-27s3t03.flac:2a967dc08cd2115bcb03017a292b0f3f
gd1980-10-27s3t04.flac:c61f04004e0d08cec3b8f93b0fa6bc8c
gd1980-10-27s3t05.flac:f5cd77d663fd05729ea73a713b41d044
gd1980-10-27s3t06.flac:6eecd659aff31b58eb187332ddf3d63a
gd1980-10-27s3t07.flac:48251f1590ae7fb167afc8f03a2d6ec8
gd1980-10-27s3t08.flac:1167e0bd59c43d53b6d70c74ab9a86f9
gd1980-10-27s3t09.flac:02a62395e7b1f363cb13ebb3c45b7016
gd1980-10-27s3t10.flac:81aaaa04401e2b7b8fbf9a135e78f9c0
flac-md5
d304807bb4a382203f538892432835bf *gd1980-10-27s1t01.flac
9eeff972d20beea8d097df62747b3bf0 *gd1980-10-27s1t02.flac
f4ad64d6791e6579d379954f44a53f39 *gd1980-10-27s1t03.flac
1d58c9be0e205b962d0c00f808211243 *gd1980-10-27s1t04.flac
82b3e215f617d9545d9a202e5eb85617 *gd1980-10-27s1t05.flac
eb82b36279365559e900d5f741f0fada *gd1980-10-27s1t06.flac
61407d01bc91d9d921ab389b2664cf96 *gd1980-10-27s1t07.flac
3ac7e4d0af05f7ecc3b052cef39895ac *gd1980-10-27s1t08.flac
8588a553ad8147f340ff9b74d31bdb37 *gd1980-10-27s1t09.flac
d821ac02b318d9dd1624f18d79d160f6 *gd1980-10-27s1t10.flac
2221ff52d54055fc2bdd7403d36c944d *gd1980-10-27s2t01.flac
090db7179a26628d0fad6d7bcf282af6 *gd1980-10-27s2t02.flac
1bf75ff80de5e9f9f31d2d3f23170c42 *gd1980-10-27s2t03.flac
650f15e1b6da40c9d6359a2a3daad0f3 *gd1980-10-27s2t04.flac
58bd4d2ec21230f15a7198ee9c841cc6 *gd1980-10-27s2t05.flac
5beab8bed413081e6e3e39cd34cad1c1 *gd1980-10-27s2t06.flac
1b2312387e72cd534158e04fcad357bd *gd1980-10-27s2t07.flac
afb32ca5daa399de1dd5f2b503954211 *gd1980-10-27s2t08.flac
bedd0cbeaf579106dcb872efc1b80f3c *gd1980-10-27s2t09.flac
2b8e82b83003d949baeada23ff07bf26 *gd1980-10-27s2t10.flac
6ab232ee535aa8b4b7c4b51e713177d2 *gd1980-10-27s3t01.flac
be9132e3e49a0f3402f6c34165de63a2 *gd1980-10-27s3t02.flac
f15be8fe158ee42441f2a32e6082d316 *gd1980-10-27s3t03.flac
cfc5ffc88047850826887cee5b0c341f *gd1980-10-27s3t04.flac
6531b8b472b2a9e5d8d2e2e5a059c6f6 *gd1980-10-27s3t05.flac
98c0402c39aee25d2adf2355553ea060 *gd1980-10-27s3t06.flac
80f8bd02739fdff9c6199aa2da642f5d *gd1980-10-27s3t07.flac
a5a4d93dfd6649aef3139e7ade83ef72 *gd1980-10-27s3t08.flac
4689a6b82607e8cfc87a8d11a2652470 *gd1980-10-27s3t09.flac
0fd472d21dffddbfbca14ac5772433a9 *gd1980-10-27s3t10.flac

Comments
Add Comment
Other Sources (comments)
Recording by Jim Wise:... (2) Recording by Jim Wise:... (1) flac16; Recording... (0) flac16: AUD: 2x... (0)
Date User Comment