Browse Collections Artists Sources   Search Dates

Add Show    List Management    Help


Grateful Dead 10/27/80
Radio City Music Hall, New York, NY
Comments Add Comment    Source Collectors    Add to Collection    Add to Want List    History
Source # 116196 Other Sources
Entered by andrew
Checksums ffp , flac-md5
Disc Counts 0 / 3
Media Size Compressed: 1.96 GB (2108990328 bytes)
Date Circulated
Date Added
09/29/2011
09/29/2011
Source Summary flac16: AUD: 2x Nakamichi CM300/CP1 cardioids > Nakamichi 550 > Maxell UDXLII. Set up in second mezzanine front row, mics hand-held by Tim Friend, recording by Joe Morrone. Transfer: MAC > Nakamichi CR-5A > Edirol FA-66 > Wavelab > R8Brain > CD-Wave > TLH > FLAC 1644 tagged. Transfer by Andrew F. 09/2011 
  Archive
Source Information - Download Text | Download Zip
GRATEFUL DEAD
Radio City Music Hall
New York NY
10-27-1980

16bit/44.1kHz file-set

s1t01 crowd & tuning
s1t02 The Race is On
s1t03 I've Been All Around this World
s1t04 Monkey & the Engineer
s1t05 To Lay Me Down
s1t06 Heaven Help the Fool
s1t07 Rosalie McFall
s1t08 On the Road Again
s1t09 Birdsong
s1t10 Ripple

s2t01 Alabama Getaway >
s2t02 Greatest Story Ever Told
s2t03 Friend of the Devil
s2t04 Minglewood Blues
s2t05 Peggy-O
s2t06 Passenger
s2t07 Row Jimmy
s2t08 Lost Sailor >
s2t09 Saint of Circumstance >
s2t10 Deal >

s3t01 Truckin' >
s3t02 Scarlet Begonias >
s3t03 Fire on the Mountain >
s3t04 Drums >
s3t05 Space >
s3t06 Wharf Rat >
s3t07 I Need a Miracle >
s3t08 Bertha >
s3t09 Johnny B. Goode
s3t10 Encore: Casey Jones

AUD: 2x Nakamichi CM300/CP1 cardioids > Nakamichi 550 > Maxell UDXLII.
Set up in second mezzanine front row, mics hand-held by Tim Friend,
recording by Joe Morrone.

Transfer: MAC > Nakamichi CR-5A > Edirol FA-66 > Wavelab > R8Brain >
CD-Wave > TLH > FLAC 1644 tagged. Transfer by Andrew F. 09/2011

Note: Patches from ID-101293 as follows: Alabama Getaway 0:00 > 0:23,
Saint of Circumstance 0:00 > 0:19, and Space 0:11 > 0:45.

c51adbb6260d2f0abf1aadcbb5a4ab86 *gd1980-10-27s1t01.flac
f5e2badf06345474211499902d2f91bb *gd1980-10-27s1t02.flac
c05892893f540acd37ea18b4734b427d *gd1980-10-27s1t03.flac
94447e758ae34464073d63ee70deb005 *gd1980-10-27s1t04.flac
b6e05d69c7939c25cc321e729592ffa3 *gd1980-10-27s1t05.flac
deb1f33beb78f9e55647538c507b9f87 *gd1980-10-27s1t06.flac
468ea7e2962de349d69a9d26c029414b *gd1980-10-27s1t07.flac
4204823b2b369a3269351961fc1c4807 *gd1980-10-27s1t08.flac
fe23b4e1cac0baddf38b762237c753ea *gd1980-10-27s1t09.flac
7d8b1554078934e8c5dc0cba0fa3ad0a *gd1980-10-27s1t10.flac
36bc770cf1b2fe1084339daa39aa0b1b *gd1980-10-27s2t01.flac
81b1c8791f518d2890611d3e497ed240 *gd1980-10-27s2t02.flac
13977727eef02d73f5b92cfaea8bc50c *gd1980-10-27s2t03.flac
63ad9a27578173989c926c353d8b5090 *gd1980-10-27s2t04.flac
6d71f8a10aa1787b5758abb19a539595 *gd1980-10-27s2t05.flac
1a32fe1a50fe0e2c83ea1b2d3433cfa4 *gd1980-10-27s2t06.flac
88ed051e84dc453932cff42339e3d24e *gd1980-10-27s2t07.flac
7f781b538e4dc915a408d402e6ae670f *gd1980-10-27s2t08.flac
2f2c7600e3d9988e8ae9c2f1e6c3c526 *gd1980-10-27s2t09.flac
a9c431b873a3d4579943f9831d36f7ab *gd1980-10-27s2t10.flac
cb3547ec72425f4ca23beeefc18e5bd5 *gd1980-10-27s3t01.flac
3af305db68037efe672bf308402ec50b *gd1980-10-27s3t02.flac
232c907cb00cc9d50d3754f272296e72 *gd1980-10-27s3t03.flac
e4a0ee3adc520e43f2bee2dd0ba604c5 *gd1980-10-27s3t04.flac
a4c4dab5efb0765ef9a83c10f480ce5c *gd1980-10-27s3t05.flac
d4b238b1b4e4b32be5c3bdb06ec4e21e *gd1980-10-27s3t06.flac
f51521eda49747d463ee8d134dc04c35 *gd1980-10-27s3t07.flac
e0ca866fc37771a329d5d8a50158d7be *gd1980-10-27s3t08.flac
c97c3299d0f5ce7c8aa770b496630492 *gd1980-10-27s3t09.flac
ec7f313aa75c097e9f27ebd13bc18fa2 *gd1980-10-27s3t10.flac

gd1980-10-27s1t01.flac:40a294cc3ae733ce6db40b688cd58e78
gd1980-10-27s1t02.flac:ec0f661e31f951fad60ac61e796f070d
gd1980-10-27s1t03.flac:ab343a098aab35eea0d03ab804ad4dce
gd1980-10-27s1t04.flac:6c7224ddc778c2323c6b6800a6b2a8f7
gd1980-10-27s1t05.flac:eb608da105f4f1aea3793b0b44f3c79c
gd1980-10-27s1t06.flac:42d0c801eb7320b36071d817af58f3d7
gd1980-10-27s1t07.flac:3c0363007575db6647b008e8ddb52896
gd1980-10-27s1t08.flac:17ab0da680cdefcf601c110dda703a6f
gd1980-10-27s1t09.flac:863bf48fc31a864878b58cb1c52ee743
gd1980-10-27s1t10.flac:c51effb461502e31db10387f95ed7b50
gd1980-10-27s2t01.flac:bae898cd7e216b1d984869e2be8438d9
gd1980-10-27s2t02.flac:b3afc478a11a5d5b16564debd018f169
gd1980-10-27s2t03.flac:573ab36aaee9cb16b173c0805064e02e
gd1980-10-27s2t04.flac:1d5ce4c5b299469d7d28448c0a02ec13
gd1980-10-27s2t05.flac:8341cf9dac1170e587a3ddf40e813b35
gd1980-10-27s2t06.flac:9286c04d1548b56c3a81a7dbe049e98c
gd1980-10-27s2t07.flac:1aa43fab2ffb425ad97508b573291634
gd1980-10-27s2t08.flac:0f436db7e386c32691c3c59ed33ec531
gd1980-10-27s2t09.flac:4820b2c0c851ef2a8cb3bd53fbfa5e4a
gd1980-10-27s2t10.flac:a84739837e5fe6f35beec8c7c475c334
gd1980-10-27s3t01.flac:3a68c5c57e0ba373b91d4b06ccdf82e9
gd1980-10-27s3t02.flac:7cdfc699bc430f1c9d81e61445b91acf
gd1980-10-27s3t03.flac:13a4dc54889d6e16da8c44e4b8eb0f0b
gd1980-10-27s3t04.flac:9b7b49cd4cb419a08d20083d90b9c701
gd1980-10-27s3t05.flac:2ebcbfdaf693a85ea68c04fb1d9bf9c3
gd1980-10-27s3t06.flac:6e79eefcc597bc8fcb822629155f6d30
gd1980-10-27s3t07.flac:27f78f8a4806707aca16d9c49f7e2341
gd1980-10-27s3t08.flac:1c24e60c00cbe497594b2a017a16407d
gd1980-10-27s3t09.flac:16dd6eb32e9f2b01ee13b68969eab307
gd1980-10-27s3t10.flac:bc75e71f63a9222a24f2d4e133ac9b94

    length     expanded size    cdr  WAVE problems  fmt   ratio  filename
     2:07.19       22447532 B   ---   --   ---xx   flac  0.5585  gd1980-10-27s1t01.flac
     3:46.47       39976988 B   ---   --   ---xx   flac  0.6019  gd1980-10-27s1t02.flac
     6:06.72       64731788 B   ---   --   ---xx   flac  0.5796  gd1980-10-27s1t03.flac
     3:32.33       37474460 B   ---   --   ---xx   flac  0.6011  gd1980-10-27s1t04.flac
     9:18.13       98461820 B   ---   --   ---xx   flac  0.5851  gd1980-10-27s1t05.flac
     7:21.50       77910044 B   ---   --   ---xx   flac  0.6001  gd1980-10-27s1t06.flac
     4:04.38       43131020 B   ---   --   ---xx   flac  0.6014  gd1980-10-27s1t07.flac
     2:56.50       31164044 B   ---   --   ---xx   flac  0.6062  gd1980-10-27s1t08.flac
    11:14.64      119044172 B   ---   --   ---xx   flac  0.6153  gd1980-10-27s1t09.flac
     4:46.04       50459852 B   ---   --   ---xx   flac  0.6197  gd1980-10-27s1t10.flac
     4:51.10       51355964 B   ---   --   ---xx   flac  0.6075  gd1980-10-27s2t01.flac
     4:20.13       45894620 B   ---   --   ---xx   flac  0.6032  gd1980-10-27s2t02.flac
    10:21.63      109692620 B   ---   --   ---xx   flac  0.5811  gd1980-10-27s2t03.flac
     7:13.73       76552940 B   ---   --   ---xx   flac  0.6012  gd1980-10-27s2t04.flac
     7:10.02       75856748 B   ---   --   ---xx   flac  0.5661  gd1980-10-27s2t05.flac
     5:51.67       62074028 B   ---   --   ---xx   flac  0.6047  gd1980-10-27s2t06.flac
    10:29.02      110960348 B   ---   --   ---xx   flac  0.5971  gd1980-10-27s2t07.flac
     6:15.41       66246476 B   ---   --   ---xx   flac  0.5890  gd1980-10-27s2t08.flac
     6:34.09       69522812 B   ---   --   ---xx   flac  0.6258  gd1980-10-27s2t09.flac
     6:35.10       69701564 B   ---   --   ---xx   flac  0.6354  gd1980-10-27s2t10.flac
     8:15.61       87461516 B   ---   --   ---xx   flac  0.6396  gd1980-10-27s3t01.flac
     8:17.16       87708476 B   ---   --   ---xx   flac  0.6307  gd1980-10-27s3t02.flac
     9:18.11       98457116 B   ---   --   ---xx   flac  0.6259  gd1980-10-27s3t03.flac
    12:19.05      130371404 B   ---   --   ---xx   flac  0.6005  gd1980-10-27s3t04.flac
     4:49.57       51113708 B   ---   --   ---xx   flac  0.5398  gd1980-10-27s3t05.flac
    10:10.52      107726348 B   ---   --   ---xx   flac  0.5875  gd1980-10-27s3t06.flac
     3:45.17       39730028 B   ---   --   ---xx   flac  0.6273  gd1980-10-27s3t07.flac
     6:23.71       67728236 B   ---   --   ---xx   flac  0.6271  gd1980-10-27s3t08.flac
     4:29.02       47456348 B   ---   --   ---xx   flac  0.6373  gd1980-10-27s3t09.flac
     6:28.57       68577308 B   ---   --   ---xx   flac  0.6218  gd1980-10-27s3t10.flac
   199:15.54     2108990328 B                            0.6045  (30 files)

No errors occured.
Show Checksums
ffp
gd1980-10-27s1t01.flac:40a294cc3ae733ce6db40b688cd58e78
gd1980-10-27s1t02.flac:ec0f661e31f951fad60ac61e796f070d
gd1980-10-27s1t03.flac:ab343a098aab35eea0d03ab804ad4dce
gd1980-10-27s1t04.flac:6c7224ddc778c2323c6b6800a6b2a8f7
gd1980-10-27s1t05.flac:eb608da105f4f1aea3793b0b44f3c79c
gd1980-10-27s1t06.flac:42d0c801eb7320b36071d817af58f3d7
gd1980-10-27s1t07.flac:3c0363007575db6647b008e8ddb52896
gd1980-10-27s1t08.flac:17ab0da680cdefcf601c110dda703a6f
gd1980-10-27s1t09.flac:863bf48fc31a864878b58cb1c52ee743
gd1980-10-27s1t10.flac:c51effb461502e31db10387f95ed7b50
gd1980-10-27s2t01.flac:bae898cd7e216b1d984869e2be8438d9
gd1980-10-27s2t02.flac:b3afc478a11a5d5b16564debd018f169
gd1980-10-27s2t03.flac:573ab36aaee9cb16b173c0805064e02e
gd1980-10-27s2t04.flac:1d5ce4c5b299469d7d28448c0a02ec13
gd1980-10-27s2t05.flac:8341cf9dac1170e587a3ddf40e813b35
gd1980-10-27s2t06.flac:9286c04d1548b56c3a81a7dbe049e98c
gd1980-10-27s2t07.flac:1aa43fab2ffb425ad97508b573291634
gd1980-10-27s2t08.flac:0f436db7e386c32691c3c59ed33ec531
gd1980-10-27s2t09.flac:4820b2c0c851ef2a8cb3bd53fbfa5e4a
gd1980-10-27s2t10.flac:a84739837e5fe6f35beec8c7c475c334
gd1980-10-27s3t01.flac:3a68c5c57e0ba373b91d4b06ccdf82e9
gd1980-10-27s3t02.flac:7cdfc699bc430f1c9d81e61445b91acf
gd1980-10-27s3t03.flac:13a4dc54889d6e16da8c44e4b8eb0f0b
gd1980-10-27s3t04.flac:9b7b49cd4cb419a08d20083d90b9c701
gd1980-10-27s3t05.flac:2ebcbfdaf693a85ea68c04fb1d9bf9c3
gd1980-10-27s3t06.flac:6e79eefcc597bc8fcb822629155f6d30
gd1980-10-27s3t07.flac:27f78f8a4806707aca16d9c49f7e2341
gd1980-10-27s3t08.flac:1c24e60c00cbe497594b2a017a16407d
gd1980-10-27s3t09.flac:16dd6eb32e9f2b01ee13b68969eab307
gd1980-10-27s3t10.flac:bc75e71f63a9222a24f2d4e133ac9b94
flac-md5
c51adbb6260d2f0abf1aadcbb5a4ab86 *gd1980-10-27s1t01.flac
f5e2badf06345474211499902d2f91bb *gd1980-10-27s1t02.flac
c05892893f540acd37ea18b4734b427d *gd1980-10-27s1t03.flac
94447e758ae34464073d63ee70deb005 *gd1980-10-27s1t04.flac
b6e05d69c7939c25cc321e729592ffa3 *gd1980-10-27s1t05.flac
deb1f33beb78f9e55647538c507b9f87 *gd1980-10-27s1t06.flac
468ea7e2962de349d69a9d26c029414b *gd1980-10-27s1t07.flac
4204823b2b369a3269351961fc1c4807 *gd1980-10-27s1t08.flac
fe23b4e1cac0baddf38b762237c753ea *gd1980-10-27s1t09.flac
7d8b1554078934e8c5dc0cba0fa3ad0a *gd1980-10-27s1t10.flac
36bc770cf1b2fe1084339daa39aa0b1b *gd1980-10-27s2t01.flac
81b1c8791f518d2890611d3e497ed240 *gd1980-10-27s2t02.flac
13977727eef02d73f5b92cfaea8bc50c *gd1980-10-27s2t03.flac
63ad9a27578173989c926c353d8b5090 *gd1980-10-27s2t04.flac
6d71f8a10aa1787b5758abb19a539595 *gd1980-10-27s2t05.flac
1a32fe1a50fe0e2c83ea1b2d3433cfa4 *gd1980-10-27s2t06.flac
88ed051e84dc453932cff42339e3d24e *gd1980-10-27s2t07.flac
7f781b538e4dc915a408d402e6ae670f *gd1980-10-27s2t08.flac
2f2c7600e3d9988e8ae9c2f1e6c3c526 *gd1980-10-27s2t09.flac
a9c431b873a3d4579943f9831d36f7ab *gd1980-10-27s2t10.flac
cb3547ec72425f4ca23beeefc18e5bd5 *gd1980-10-27s3t01.flac
3af305db68037efe672bf308402ec50b *gd1980-10-27s3t02.flac
232c907cb00cc9d50d3754f272296e72 *gd1980-10-27s3t03.flac
e4a0ee3adc520e43f2bee2dd0ba604c5 *gd1980-10-27s3t04.flac
a4c4dab5efb0765ef9a83c10f480ce5c *gd1980-10-27s3t05.flac
d4b238b1b4e4b32be5c3bdb06ec4e21e *gd1980-10-27s3t06.flac
f51521eda49747d463ee8d134dc04c35 *gd1980-10-27s3t07.flac
e0ca866fc37771a329d5d8a50158d7be *gd1980-10-27s3t08.flac
c97c3299d0f5ce7c8aa770b496630492 *gd1980-10-27s3t09.flac
ec7f313aa75c097e9f27ebd13bc18fa2 *gd1980-10-27s3t10.flac

Comments
Add Comment
Other Sources (comments)
Recording by Jim Wise:... (2) Recording by Jim Wise:... (1) flac16; Recording... (0) flac2448: AUD: 2x... (0)
Date User Comment