Browse Collections Artists Sources   Search Dates

Add Show    List Management    Help


Trey Anastasio 10/06/11
Thomas Wolfe Auditorium, Asheville, NC
Comments Add Comment    Source Collectors    Add to Collection    Add to Want List    History
Source # 116274 Other Sources
Entered by Jason Sobel
Checksums 16bit-FFP
Disc Counts 0 / 0
Media Size Compressed: 976.45 MB (1023883670 bytes)
Date Circulated
Date Added
10/07/2011
10/07/2011
Source Summary flac16; Neumann ak40 > lc3 > km100 > Lunatec V3 > Edirol R-44 @ 24/48; SDHC card > PC > wavelab 6.1 (fades, Crystal Resampler (high), dither w/ iZotope Ozone 4) > cd wave > traders little helper (flac level 8); Taped & Transferred by Gordon Wilson 
Source Information - Download Text | Download Zip
Trey Anastasio Band
10/06/2011
Thomas Wolfe Auditorium
Asheville, NC

source:   Neumann ak40 > lc3 > km100 (din) > Lunatec V3 > Edirol R-44 @ 24/48
location: OTS Mezzanine row AA Seats 9 & 10 two seats LOC
transfer: SDHC card > PC > wavelab 6.1 > cd wave > traders little helper (flac level 8)

all editing (fades, Crystal Resampler (high), dither w/ iZotope Ozone 4) done in wavelab 6.1

*16bit/44.1khz fileset*

recorded and transferred by Gordon Wilson

A Team Dirty South Recording

Set One:

01. Intro
02. Gotta Jibboo
03. Cayman Review
04. Small Axe
05. Push On 'Til the Day
06. Burn That Bridge
07. Valentine
08. Frost *
09. It Makes No Difference
10. Snake Head Thumb
11. The Devil Went Down to Georgia
12. Simple Twist Up Dave

Set Two:

01. Intro
02. In the Wee Wee Hours
03. Alaska
04. Burlap Sack and Pumps
05. Clint Eastwood
06. Liquid Time
07. A Case of Ice and Snow
08. Magilla
09. Sand
10. The Way I Feel
11. Money, Love and Change
12. Show of Life

Encore:
13. Drifting
14. First Tube

* first time played


shntool 3.0.4
Copyright (C) 2000-2007 Jason Jordan

    length     expanded size    cdr  WAVE problems  fmt   ratio  filename
     0:58.73       10402940 B   ---   --   ---xx   flac  0.4498  trey2011-10-06s1t01.flac
    10:24.62      110219468 B   ---   --   ---xx   flac  0.5468  trey2011-10-06s1t02.flac
     6:09.62       65237468 B   ---   --   ---xx   flac  0.5617  trey2011-10-06s1t03.flac
     3:39.63       38779820 B   ---   --   ---xx   flac  0.5436  trey2011-10-06s1t04.flac
    10:30.22      111183788 B   ---   --   ---xx   flac  0.5776  trey2011-10-06s1t05.flac
     5:41.05       60164204 B   ---   --   ---xx   flac  0.5610  trey2011-10-06s1t06.flac
     8:25.29       89150252 B   ---   --   ---xx   flac  0.5467  trey2011-10-06s1t07.flac
     4:22.60       46357964 B   ---   --   ---xx   flac  0.4663  trey2011-10-06s1t08.flac
     6:07.63       64887020 B   ---   --   ---xx   flac  0.5186  trey2011-10-06s1t09.flac
     7:14.04       76567052 B   ---   --   ---xx   flac  0.5422  trey2011-10-06s1t10.flac
     4:18.56       45642956 B   ---   --   ---xx   flac  0.5656  trey2011-10-06s1t11.flac
    10:34.20      111884684 B   ---   --   ---xx   flac  0.5788  trey2011-10-06s1t12.flac
     1:18.06       13773356 B   ---   --   ---xx   flac  0.4164  trey2011-10-06s2t01.flac
     4:08.74       43921292 B   ---   --   ---xx   flac  0.5122  trey2011-10-06s2t02.flac
     8:48.57       93273308 B   ---   --   ---xx   flac  0.5528  trey2011-10-06s2t03.flac
     5:12.49       55152092 B   ---   --   ---xx   flac  0.5822  trey2011-10-06s2t04.flac
     3:55.14       41486972 B   ---   --   ---xx   flac  0.5516  trey2011-10-06s2t05.flac
     7:18.08       77282060 B   ---   --   ---xx   flac  0.5490  trey2011-10-06s2t06.flac
     8:04.25       85436444 B   ---   --   ---xx   flac  0.5281  trey2011-10-06s2t07.flac
     2:56.20       31093484 B   ---   --   ---xx   flac  0.5723  trey2011-10-06s2t08.flac
    12:14.01      129479996 B   ---   --   ---xx   flac  0.5580  trey2011-10-06s2t09.flac
    10:52.72      115182188 B   ---   --   ---xx   flac  0.4946  trey2011-10-06s2t10.flac
    10:14.56      108441356 B   ---   --   ---xx   flac  0.5680  trey2011-10-06s2t11.flac
     9:02.57       95742908 B   ---   --   ---xx   flac  0.5178  trey2011-10-06s2t12.flac
     5:50.49       61855292 B   ---   --   ---xx   flac  0.5521  trey2011-10-06s2t13.flac
     8:11.49       86727692 B   ---   --   ---xx   flac  0.6050  trey2011-10-06s2t14.flac
   176:37.06     1869326056 B                            0.5477  (26 files)
Show Checksums
16bit-FFP
trey2011-10-06s1t01.flac:82752502714adffeba76e874cd6f0fab
trey2011-10-06s1t02.flac:773b43b251ada34e3afe37c9fb4b4710
trey2011-10-06s1t03.flac:06272994d46a2fbd0e80d68310997f67
trey2011-10-06s1t04.flac:ff4297bbe3235dfb03b3838ef8068a31
trey2011-10-06s1t05.flac:f4ec667a5f984ea03cc87ced33145ecd
trey2011-10-06s1t06.flac:af6d4732e24df6f5fbb1b92f742f5161
trey2011-10-06s1t07.flac:a339313cc5706c8e2a6f5e62ef90d789
trey2011-10-06s1t08.flac:edd57d24cfaaa1c99c48af3f1faf626a
trey2011-10-06s1t09.flac:955e6dc844601f9f83638126d7c4d4b3
trey2011-10-06s1t10.flac:0fa31398e9dbbd837de047c9e5700f7e
trey2011-10-06s1t11.flac:7ce1643fbae48bac5a2b6b853b69cac1
trey2011-10-06s1t12.flac:62a4dad6a62a1489c0e426dcbfdda306
trey2011-10-06s2t01.flac:18c01842aa02a769a4bc7cce8eedbc08
trey2011-10-06s2t02.flac:d6b403a874c7e79fdfe2153f30a09219
trey2011-10-06s2t03.flac:2321a08692ab0b43bb9442396586ccac
trey2011-10-06s2t04.flac:ef06c1fbf186d29bea85ccefe0d2b389
trey2011-10-06s2t05.flac:fd9c49889ff8cfb28fe3add3ecdf4795
trey2011-10-06s2t06.flac:8e65eabecba90e8a519a85143d6931e8
trey2011-10-06s2t07.flac:bb27c0cbc7907155b985b9e588b579d3
trey2011-10-06s2t08.flac:b00cee33da17d909a4a62ba659dc9bc2
trey2011-10-06s2t09.flac:638d8ff26f68d7ba01e2ae430c5a268b
trey2011-10-06s2t10.flac:9a545c9c01695fe5c765742096308f87
trey2011-10-06s2t11.flac:d37ca6d4d711456567d2d8a78411e6f9
trey2011-10-06s2t12.flac:3c331a61c4c1408a1aec434770505fd5
trey2011-10-06s2t13.flac:233f7fad0d8b146d0a8056107340bb98
trey2011-10-06s2t14.flac:1068725d72328e30e3f0d87bc7f65f1d

Comments
Add Comment
Other Sources (comments)
flac16; Schoeps MK4... (0) flac16; Schoeps MK41... (0) flac16; DPA 4023 >... (0) flac16; Busman Audio... (0) flac24; Neumann ak40... (0) flac16; Schoeps MK41... (0) flac24; Schoeps MK41... (0)
Date User Comment