Browse Collections Artists Sources   Search Dates

Add Show    List Management    Help


Grateful Dead 10/26/80
Radio City Music Hall, New York, NY
Comments Add Comment    Source Collectors    Add to Collection    Add to Want List    History
Source # 116426 Other Sources
Entered by andrew
Checksums ffp , flac-md5
Disc Counts 0 / 0
Media Size Compressed: 1.12 GB (1205774868 bytes)
Date Circulated
Date Added
10/16/2011
10/16/2011
Source Summary flac16; AUD: 2x Nakamichi CM300/CP1 cardioids > Nakamichi 550 > Maxell UDXLII. Set up in second mezzanine few rows back, mics hand-held by Tim Friend, recording by Joe Morrone. Transfer: MAC > Nakamichi CR-5A > Edirol FA-66 > Wavelab > R8Brain > CD-Wave > TLH > FLAC 1644 tagged. Transfer by Andrew F. 10/2011 
  Archive
Source Information - Download Text | Download Zip
GRATEFUL DEAD
Radio City Music Hall
New York NY
10-26-1980

s1t01 Iko Iko
s1t02 Dark Hollow
s1t03 It Must Have Been the Roses
s1t04 On the Road Again
s1t05 Jackaroe
s1t06 Cassidy
s1t07 China Doll
s1t08 Ripple

s2t01 crowd & tuning
s2t02 Jack Straw >
s2t03 Sugaree >
s2t04 Little Red Rooster
s2t05 Brown Eyed Women
s2t06 Let It Grow >
s2t07 Don't Ease Me In

s3t01 crowd & tuning
s3t02 Samson And Delilah
s3t03 Althea
s3t04 crowd & tuning, false start
s3t05 Estimated Prophet >
s3t06 He's Gone >
s3t07 Drums >
s3t08 Space >
s3t09 Not Fade Away >
s3t10 Stella Blue >
s3t11 Good Lovin'
s3t12 Encore: Brokedown Palace

AUD: 2x Nakamichi CM300/CP1 cardioids > Nakamichi 550 > Maxell UDXLII.
Set up in second mezzanine few rows back, mics hand-held by Tim Friend,
recording by Joe Morrone.

Transfer: MAC > Nakamichi CR-5A > Edirol FA-66 > Wavelab > R8Brain >
CD-Wave > TLH > FLAC 1644 tagged. Transfer by Andrew F. 10/2011

Notes: Decent recording, but a lot of audience noise close to the mics
at times. Patch from ID-8765 in He's Gone, 11:30 > 12:08. CDR burning
layout: D1 s1t01 > s1t08, D2 s2t01 > s3t03, D3 s3t04 > s3t12.

    length     expanded size    cdr  WAVE problems  fmt   ratio  filename
     6:26.16       68128076 B   ---   --   ---xx   flac  0.6515  gd1980-10-26s1t01.flac
     4:07.05       43582604 B   ---   --   ---xx   flac  0.6412  gd1980-10-26s1t02.flac
     7:10.34       75932012 B   ---   --   ---xx   flac  0.6161  gd1980-10-26s1t03.flac
     3:23.21       35858636 B   ---   --   ---xx   flac  0.6434  gd1980-10-26s1t04.flac
     5:12.26       55097996 B   ---   --   ---xx   flac  0.6291  gd1980-10-26s1t05.flac
     5:08.71       54498236 B   ---   --   ---xx   flac  0.6437  gd1980-10-26s1t06.flac
     5:52.05       62104604 B   ---   --   ---xx   flac  0.6124  gd1980-10-26s1t07.flac
     4:50.40       51250124 B   ---   --   ---xx   flac  0.6370  gd1980-10-26s1t08.flac
     0:40.64        7206572 B   ---   --   ---xx   flac  0.5810  gd1980-10-26s2t01.flac
     5:16.41       55838876 B   ---   --   ---xx   flac  0.6465  gd1980-10-26s2t02.flac
     9:42.53      102789500 B   ---   --   ---xx   flac  0.6282  gd1980-10-26s2t03.flac
     9:27.13      100049420 B   ---   --   ---xx   flac  0.6183  gd1980-10-26s2t04.flac
     6:59.20       73958684 B   ---   --   ---xx   flac  0.6161  gd1980-10-26s2t05.flac
     9:29.18      100413980 B   ---   --   ---xx   flac  0.6427  gd1980-10-26s2t06.flac
     3:36.46       38210636 B   ---   --   ---xx   flac  0.6497  gd1980-10-26s2t07.flac
     1:28.69       15685532 B   ---   --   ---xx   flac  0.5721  gd1980-10-26s3t01.flac
     8:12.49       86904092 B   ---   --   ---xx   flac  0.6502  gd1980-10-26s3t02.flac
     8:25.53       89206700 B   ---   --   ---xx   flac  0.6192  gd1980-10-26s3t03.flac
     2:08.25       22638044 B   ---   --   ---xx   flac  0.6048  gd1980-10-26s3t04.flac
    10:32.61      111628316 B   ---   --   ---xx   flac  0.6421  gd1980-10-26s3t05.flac
    15:36.74      165284492 B   ---   --   ---xx   flac  0.6254  gd1980-10-26s3t06.flac
    10:36.06      112204556 B   ---   --   ---xx   flac  0.5918  gd1980-10-26s3t07.flac
     6:35.45       69783884 B   ---   --   ---xx   flac  0.5746  gd1980-10-26s3t08.flac
     5:08.71       54498236 B   ---   --   ---xx   flac  0.6538  gd1980-10-26s3t09.flac
    11:09.39      118103372 B   ---   --   ---xx   flac  0.6039  gd1980-10-26s3t10.flac
     7:40.22       81195788 B   ---   --   ---xx   flac  0.6648  gd1980-10-26s3t11.flac
     6:56.23       73436540 B   ---   --   ---xx   flac  0.6079  gd1980-10-26s3t12.flac
   181:55.35     1925489508 B                            0.6262  (27 files)

No errors occured.
Show Checksums
ffp
gd1980-10-26s1t01.flac:418dd669523fcc95a63bfafa6bbffb00
gd1980-10-26s1t02.flac:3ace12f775b683ed0552de0e222250ec
gd1980-10-26s1t03.flac:ac2250ef3af8fb57d8c9bb5a7226f43a
gd1980-10-26s1t04.flac:5b7209384529cb78cbb391fee1ad094a
gd1980-10-26s1t05.flac:764e30a67c527582f782531961da160c
gd1980-10-26s1t06.flac:f95ca8aabf85b350d5b8176ac91cedb1
gd1980-10-26s1t07.flac:6dc6df5c94998dfec519017c441279ea
gd1980-10-26s1t08.flac:1d6183cf28a0d701130fa6854392d77d
gd1980-10-26s2t01.flac:ec1d566a250f7f5b51f05cb7e8c75bab
gd1980-10-26s2t02.flac:894e3e65fa4354bb90e602fbf7033a92
gd1980-10-26s2t03.flac:87b4552d493f0ffe70b1336da06efe4c
gd1980-10-26s2t04.flac:8db0ae043eb0fb1580db676a67f1e06c
gd1980-10-26s2t05.flac:0c942a0ac4f9df9f1fe5213c2321ce82
gd1980-10-26s2t06.flac:518a317e6261e03e3bed0f95b4f394c4
gd1980-10-26s2t07.flac:f3aebea6a0ff7da522e0ef8aacbca8ab
gd1980-10-26s3t01.flac:791fb6befa0fe97752d478f2293189b6
gd1980-10-26s3t02.flac:62e200d26db556d9973f3364826c1492
gd1980-10-26s3t03.flac:b39378ee30e3ebc3d358fcff1a9bd2ca
gd1980-10-26s3t04.flac:170d491dc37e83c03522ef1f19a12506
gd1980-10-26s3t05.flac:a52dc5a8191decda29b6cac244938246
gd1980-10-26s3t06.flac:39305df19ff15f5428d75b26b3e2ac83
gd1980-10-26s3t07.flac:2005cc3a9c8adee008b73fb340aed50a
gd1980-10-26s3t08.flac:d28c8a962cebab6dc5c5c451b693cdcf
gd1980-10-26s3t09.flac:969e52b37941e6e2aa9eadcc83157e40
gd1980-10-26s3t10.flac:9dfbf41caeec5aaa2d1c11719d19065b
gd1980-10-26s3t11.flac:a3a5fdaa935941800570c9516a94d511
gd1980-10-26s3t12.flac:03089c518f7b068e7e2263bf76fb0ebf
flac-md5
301c56a8cc8ce1a33d8ef2157ed99730 *gd1980-10-26s1t01.flac
928f4e302e01c1e5fa0ad6e9cacb974a *gd1980-10-26s1t02.flac
ac63a79e8d58028291e672abd401b6e6 *gd1980-10-26s1t03.flac
475f48bd979b019e9eacce1634491c84 *gd1980-10-26s1t04.flac
39167318ee7da72a5c461e1c652925dc *gd1980-10-26s1t05.flac
001910aa43aec99b08bf0a57d55dde50 *gd1980-10-26s1t06.flac
9639fbe055375a565245b0b00edb7b77 *gd1980-10-26s1t07.flac
4d16a85bdc2e7f1e44e53d1aa9b8faf9 *gd1980-10-26s1t08.flac
7262f6124e8f7a7b2e0cf0945b510d3b *gd1980-10-26s2t01.flac
ad9911d43e3ad0bc216d69ce290364a7 *gd1980-10-26s2t02.flac
f6424d2171beecd357c0e823ceb0f0d3 *gd1980-10-26s2t03.flac
a908d9c989beebdf1353af8ba45d0728 *gd1980-10-26s2t04.flac
c92b9d9f7e0dd43a2c1d33a5fd089061 *gd1980-10-26s2t05.flac
b06af63548be4ff05f1ef78614edfc6c *gd1980-10-26s2t06.flac
e06fc09550242161c3fb49db4237f3b9 *gd1980-10-26s2t07.flac
426c9224cd7e7a1c4eb955e4bccc0495 *gd1980-10-26s3t01.flac
80a7d6935697448b8c704f8720fbe07b *gd1980-10-26s3t02.flac
3e292f9969802118ce5551713bd8d374 *gd1980-10-26s3t03.flac
2c95d186e776c01d4472adfa3a775e75 *gd1980-10-26s3t04.flac
acb47218f4d018a0528ecd26fbd97930 *gd1980-10-26s3t05.flac
6fe891035c8644e7b914a9c2cdc6a2e9 *gd1980-10-26s3t06.flac
fa9bff919fd2cf088a76b9c1ff3a535a *gd1980-10-26s3t07.flac
d5ffb16a4aa11c7c2bb7706749f46099 *gd1980-10-26s3t08.flac
633ff73ee46613594ca2bda7f60f9b2f *gd1980-10-26s3t09.flac
c0ac05dde2bc1ffa157e32384be44ebc *gd1980-10-26s3t10.flac
88b7678fba4c8d50d0b9c6e192cc8cf5 *gd1980-10-26s3t11.flac
0d42784415fcca48dad307578abee187 *gd1980-10-26s3t12.flac

Comments
Add Comment
Other Sources (comments)
Updated lineage: Recording... (1) Source: CAUD... (0) Updated Source; SBD... (13) PLEASE NOTE: This is a... (0) flac16; Recording... (0) flac16; Matrix by... (0) flac16; Loge Dead... (0)
Date User Comment