Browse Collections Artists Sources   Search Dates

Add Show    List Management    Help


Grateful Dead 02/20/71
Capitol Theater, Port Chester, NY
Comments Add Comment    Source Collectors    Add to Collection    Add to Want List    History
Source # 116617 Other Sources
Entered by Gary Field
Checksums ffp , flac-md5
Disc Counts 0 / 0
Media Size Compressed: 910.28 MB (954495064 bytes)
Date Circulated
Date Added
10/22/2011
10/22/2011
Source Summary flac16; Recording Info: SBD -> Master Reel -> CD; Transfer Info: CD -> Samplitude Professional v10.02 -> Adobe Audition v1.5 -> FLAC; All Transfers and Mastering By Charlie Miller 
  Archive
Source Information - Download Text | Download Zip
Grateful Dead - February 20, 1971
Capitol Theater - Port Chester, NY

Recording Info:
SBD -> Master Reel -> CD

Transfer Info:
CD -> Samplitude Professional v10.02 -> Adobe Audition v1.5 -> FLAC
(2 Discs Audio / 2 Discs FLAC)

All Transfers and Mastering By Charlie Miller
[email protected]
May 30, 2008

Patch Info:
SBD -> Master Reel -> PCM -> Dat -> CD supplies:
Big Boss Man (4:17 - 4:49)
Goin' Down The Road Feeling Bad (3:01 - 3:44)

Notes:
-- Disc 2 needs an overburn to fit onto one disc
-- Thanks to Joe B. Jones for his help with the pitch correction

Set 1:
d1t01 - Tuning
d1t02 - Casey Jones
d1t03 - Me And My Uncle
d1t04 - Hard To Handle
d1t05 - Bertha
d1t06 - Playing In The Band
d1t07 - Bird Song
d1t08 - Big Boss Man
d1t09 - That's It For The Other One ->
d1t10 - Wharf Rat
d1t11 - Sugar Magnolia

Set 2:
d2t01 - Tuning
d2t02 - Truckin'
d2t03 - Loser
d2t04 - Next Time You See Me
d2t05 - Greatest Story Ever Told ->
d2t06 - Johnny B. Goode
d2t07 - Ripple
d2t08 - Not Fade Away ->
d2t09 - Goin' Down The Road Feeling Bad ->
d2t10 - Not Fade Away ->
d2t11 - Turn On Your Lovelight


SHNTOOL OUTPUT:
    length     expanded size   cdr  WAVE problems filename
     1:51.29       19648652    ---   --   -----   gd71-02-20d1t01.wav
     5:29.12       58063868    ---   --   -----   gd71-02-20d1t02.wav
     4:29.49       47566892    ---   --   -----   gd71-02-20d1t03.wav
     8:41.41       92000876    ---   --   -----   gd71-02-20d1t04.wav
     6:57.56       73690556    ---   --   -----   gd71-02-20d1t05.wav
     4:49.04       50989052    ---   --   -----   gd71-02-20d1t06.wav
     9:27.50      100136444    ---   --   -----   gd71-02-20d1t07.wav
     5:50.03       61747100    ---   --   -----   gd71-02-20d1t08.wav
    16:49.12      178015868    ---   --   -----   gd71-02-20d1t09.wav
     8:32.12       90345068    ---   --   -----   gd71-02-20d1t10.wav
     5:46.45       61140284    ---   --   -----   gd71-02-20d1t11.wav
     1:37.68       17270780    ---   --   -----   gd71-02-20d2t01.wav
     9:42.40      102758924    ---   --   -----   gd71-02-20d2t02.wav
     9:11.68       97356380    ---   --   -----   gd71-02-20d2t03.wav
     4:27.06       47112956    ---   --   -----   gd71-02-20d2t04.wav
     4:10.23       44154140    ---   --   -----   gd71-02-20d2t05.wav
     5:09.30       54578204    ---   --   -----   gd71-02-20d2t06.wav
     5:44.04       60691052    ---   --   -----   gd71-02-20d2t07.wav
     4:23.04       46402652    ---   --   -----   gd71-02-20d2t08.wav
     8:32.08       90335660    ---   --   -----   gd71-02-20d2t09.wav
     1:52.02       19761548    ---   --   -----   gd71-02-20d2t10.wav
    26:10.42      277046828    ---   --   -----   gd71-02-20d2t11.wav
   159:45.08     1690813784 B                     (totals for 22 files)
Show Checksums
ffp
gd71-02-20d1t01.flac:7bbeb3a00f8f412f06865cbc9c0bc19d
gd71-02-20d1t02.flac:75e4e671ddea5d7f83ca14009ece0d92
gd71-02-20d1t03.flac:4793f57e675c0c139d066fe812d47029
gd71-02-20d1t04.flac:497d5f7862931464aa64fac8742fad3e
gd71-02-20d1t05.flac:353948b2a9a0226082bf903c841c2af6
gd71-02-20d1t06.flac:2802868829a9ed0ea9a5c5ae1eda98e6
gd71-02-20d1t07.flac:b2124ee1c9b856a47a3683ad36756404
gd71-02-20d1t08.flac:a6fc2241405253e45820df540ab7cabc
gd71-02-20d1t09.flac:e6e1f067b14a9bf3ee90a1305b653933
gd71-02-20d1t10.flac:cc5d1ea0736a42be2a158ac3f0d4cf10
gd71-02-20d1t11.flac:b33aaccd1310515a21a3a4fb38e81016
gd71-02-20d2t01.flac:bad8785882f5494d620d172abbad1999
gd71-02-20d2t02.flac:690d562580b4ca6dbb1026773ba24d71
gd71-02-20d2t03.flac:e4a35d62000bf27ea6f670b012e62471
gd71-02-20d2t04.flac:e067691b8f5bd3a1ff7abe8d4025c872
gd71-02-20d2t05.flac:0ba4095c17ec4cb791de7cc8179a9176
gd71-02-20d2t06.flac:b82e9614b8b80b97f20cdec14c511d94
gd71-02-20d2t07.flac:737e179da0d43b0d33a1dff7d1cabaaa
gd71-02-20d2t08.flac:17b24f3bc94434f84b4f56c02eb2d034
gd71-02-20d2t09.flac:8834a9fd2e042d4fd12dd4c970feadbf
gd71-02-20d2t10.flac:24c8a5259f517042d3fa2a9aa34efc1e
gd71-02-20d2t11.flac:cf18c167f759792418ecda6c2b06bc7d
flac-md5
b5d4233ebd44aeb2e22ba3523add90fa *gd71-02-20d1t01.flac
3dc507e00e881ae04dcd3ef03548c9cd *gd71-02-20d1t02.flac
d5a0e3605d98b9f8f0a45dcf6a1fce01 *gd71-02-20d1t03.flac
c6fdef44a7534feb11a73c92d4f34d3a *gd71-02-20d1t04.flac
039c25b7e42b3b0e607ad564c5f731bb *gd71-02-20d1t05.flac
b4f458c7e1ba0c3ed314af7df24fb0e7 *gd71-02-20d1t06.flac
7ba4a2ecb345f5c10a45764be85c69fd *gd71-02-20d1t07.flac
90a5ec42de5e967eb573357d807a93e5 *gd71-02-20d1t08.flac
7f9a3b491799b026d175d082ca5ede6d *gd71-02-20d1t09.flac
be28ff5da933440b1fb44f3b07092abc *gd71-02-20d1t10.flac
6dd75e96c8bf1bf9ea49d6acd7c5605a *gd71-02-20d1t11.flac
25af7a57ecd6c065f1e588faa2e89fac *gd71-02-20d2t01.flac
44ef50fa40e7d983e8862f969b48c827 *gd71-02-20d2t02.flac
a577dc8c7e53c127adf073e9b2321502 *gd71-02-20d2t03.flac
3b1baab28912bf1245b93256600623c7 *gd71-02-20d2t04.flac
6e62c7cb920389ec3db35819d048649c *gd71-02-20d2t05.flac
55a6bd242ca0a38ac1d01866d6413aa0 *gd71-02-20d2t06.flac
0ac0b8603ad0b9d0214495c513fefe7c *gd71-02-20d2t07.flac
6f5accfef5707ad3a81f5e2661a244a9 *gd71-02-20d2t08.flac
f67a3147148468d771cbd908f0a15328 *gd71-02-20d2t09.flac
30f39be3c014174a9a2e1489721d8f23 *gd71-02-20d2t10.flac
979e35d6ec91bcac71ad5e6cb4cda6d9 *gd71-02-20d2t11.flac

Comments
Add Comment
Other Sources (comments)
7" 2-track Betty Reel (0) likely seekable reshn of (3) flac16; Source: 7"... (0)
Date User Comment