Browse Collections Artists Sources   Search Dates

Add Show    List Management    Help


Allman Brothers Band 09/30/89
Beacon Theatre, New York, NY
Comments Add Comment    Source Collectors    Add to Collection    Add to Want List    History
Source # 116670 Other Sources
Entered by Matt Vernon
Checksums flac-md5-orig , ffp-alternate
Disc Counts 2 / 2
Media Size Compressed: 963.96 MB (1010785320 bytes)
Date Circulated
Date Added
10/23/2011
10/25/2011
Source Summary Unknown AUD / SBD combination 
Source Information - Download Text | Download Zip
Allman Brothers Band, Beacon Theatre, New York, NY   1989-09-30

Taper is unknown. Audience recording for disc 1 then it seems to switch to soundboard for disc 2 . set seems real short compared to the other nights so who knows if songs are missing from this show i really can't remember that far back .

Disc 1 : 1st Set :
(Missing-Don't Want You No More)
01-It's Not My Cross To Bear
02-Statesboro Blues
03-You Don't Love Me
04-Please Call Home
05-Blue Sky
06-I'm No Angel
07-Trouble No More
08-Harp Intro > Blues Ain't Nothin'*
09-Duane's Tune
10-Southbound^
2nd Set :
11-In Memory Of Elizabeth Reed

Disc 2 : 2nd Set Con't :
01-True Gravity
02-Ramblin' Man
03-Jessica
04-Whipping Post

Comment
* - w/ Johnny Neel On Vocals
^ - w/ Barry Oakley Jr.

- - - - alternate info file

The Allman Brothers Band
Beacon Theatre
New York, New York
Sep 30, 1989 (Sat)

source unknown

Don't Want You No More (missing)
disc one:
01 It's Not My Cross To Bear
02 Statesboro Blues
03 You Don't Love Me
04 Please Call Home
05 Blue Sky
06 I'm No Angel
07 Trouble No More
08 Blues Ain't Nothin' - Johnny Neel Vocals
09 Duane's Tune
10 Southbound w/Barry Oakley Jr.
11 In Memory of Elizabeth Reed
disc two:
01 Tru Gravity
02 Ramblin Man
03 Jessica
04 Whipping Post

notes: received in audio trade with Michael Roesner Sept 2008 with this info only - 09/30/89  New York, NY - Beacon Theater  A:D  2 CD DWYNM missing, hisses in LR
Audio cdr>eac>tlc>flac by strmmyweather ([email protected]) Sept 2008

    length     expanded size    cdr  WAVE problems  fmt   ratio  filename
     5:49.44       61667132 B   ---   --   ---xx   flac  0.7021  abb1989-09-30d1t01.flac
     5:44.53       60806300 B   ---   --   ---xx   flac  0.7157  abb1989-09-30d1t02.flac
     6:15.19       66194732 B   ---   --   ---xx   flac  0.7155  abb1989-09-30d1t03.flac
     5:36.41       59366876 B   ---   --   ---xx   flac  0.6848  abb1989-09-30d1t04.flac
     6:31.00       68972444 B   ---   --   ---xx   flac  0.7104  abb1989-09-30d1t05.flac
     4:16.45       45264284 B   ---   --   ---xx   flac  0.7214  abb1989-09-30d1t06.flac
     3:33.20       37620284 B   ---   --   ---xx   flac  0.7194  abb1989-09-30d1t07.flac
     6:14.61       66117116 B   ---   --   ---xx   flac  0.6994  abb1989-09-30d1t08.flac
     7:10.72       76021388 B   ---   --   ---xx   flac  0.7160  abb1989-09-30d1t09.flac
     8:31.73       90312140 B   ---   --   ---xx   flac  0.7172  abb1989-09-30d1t10.flac
    16:24.33      173655260 B   ---   --   ---xx   flac  0.7181  abb1989-09-30d1t11.flac
    26:48.38      283740620 B   ---   --   ---xx   flac  0.6974  abb1989-09-30d2t01.flac
     5:39.70       59964284 B   ---   --   ---xx   flac  0.6999  abb1989-09-30d2t02.flac
    13:17.11      140616716 B   ---   --   ---xx   flac  0.7133  abb1989-09-30d2t03.flac
    14:09.55      149893004 B   ---   --   ---xx   flac  0.7336  abb1989-09-30d2t04.flac
   136:04.35     1440212580 B                            0.7109  (15 files)


Show Checksums
flac-md5-orig
d8f53951b896d78be4fc7793b450de29 *abb1989 - 09-30d1t01-It's Not My Cross To Bear.flac
e43d4dccfb8ac73e84fa5b49a0724a4b *abb1989 - 09-30d1t02-Statesboro Blues.flac
be7bf45b603e6f843ede6895e9ecc40c *abb1989 - 09-30d1t03-You Don't Love Me.flac
2d49da4f7887b5ced6858146ead9c4ec *abb1989 - 09-30d1t04-Please Call Home.flac
4912e0ee8553b9b49008442a962739ad *abb1989 - 09-30d1t05-Blue Sky.flac
c7d258eda1634c2751fb106e7abfdcae *abb1989 - 09-30d1t06-I'm No Angel.flac
fb48523b465e5566b5bf57a56adb39c8 *abb1989 - 09-30d1t07-Trouble No More.flac
b5cb6835ad338a6159822437f6d5a6a8 *abb1989 - 09-30d1t08-Blues Ain't Nothin.flac
16b3403d6ef73364eb7c80805b19ec24 *abb1989 - 09-30d1t09-Duane's Tune.flac
349c7316a5fe5ed3bf1d63035d1ba710 *abb1989 - 09-30d1t10-Southbound.flac
022b366490f248ba81a1107fae550b07 *abb1989 - 09-30d1t11-In Memory Of Elizabeth Reed.flac
0908a9a7cf9192111ac78866259ec634 *abb1989 - 09-30d2t01-True Gravity.flac
b58d2a8799a293333c580c290a88d8bc *abb1989 - 09-30d2t02-Ramblin' Man.flac
2aec4e0c95dd2b0f5ec580f1e6b21653 *abb1989 - 09-30d2t03-Jessica.flac
4b8bee5bb767949e19bad3579bfbc6bc *abb1989 - 09-30d2t04-Whipping Post.flac
ffp-alternate
abb1989-09-30d1t01.flac:e8b7dd4a79e70c4d088231ca13447890
abb1989-09-30d1t02.flac:fec846c51c4248351d522033212eacbf
abb1989-09-30d1t03.flac:71e709f15e392b89e73f4089c0a2e658
abb1989-09-30d1t04.flac:38f227b69e4d356ac1570e94bd28a260
abb1989-09-30d1t05.flac:3e6a85bcfd22daa431c0706076d3a18c
abb1989-09-30d1t06.flac:560867802bbbf7434671ffcb7c6aabdd
abb1989-09-30d1t07.flac:43d690a697c7834addebe9f756c96ad6
abb1989-09-30d1t08.flac:d90e3bead5f9632f9af6df3a4452d530
abb1989-09-30d1t09.flac:6dbab3e9798175299aa2e5885e156de6
abb1989-09-30d1t10.flac:fe6bd3a1791b1a42400091162527015d
abb1989-09-30d1t11.flac:4ddf2dcb65adb95cecf1d52675d3addd
abb1989-09-30d2t01.flac:48da0fe9a8635a7d831850730c0cce3d
abb1989-09-30d2t02.flac:59b12d94bdafb400a7c23a4871fb8dbd
abb1989-09-30d2t03.flac:d6f5216c9c3145aff9535e3c69c5774f
abb1989-09-30d2t04.flac:fb119e29963d545e88a6dd719feadead

Comments
Add Comment
Other Sources (comments)
Unknown Audience recording (0)
Date User Comment
11/02/2011 mgoldey Disc 2 is from a different performance, not 09/30/89.
07/02/2018 mvernon added alternate checksum and info file on July 2, 2018
same tracking but only have flac md5 so can't tell if same waveforms
no other collectors are linked at this time