Browse Collections Artists Sources   Search Dates

Add Show    List Management    Help


Grateful Dead 10/25/80
Radio City Music Hall, New York, NY
Comments Add Comment    Source Collectors    Add to Collection    Add to Want List    History
Source # 116768 Other Sources
Entered by andrew
Checksums ffp , flac-md5
Disc Counts 0 / 0
Media Size Compressed: 3.24 GB (3479696384 bytes)
Date Circulated
Date Added
10/28/2011
10/28/2011
Source Summary flac24; AUD: 2x Nakamichi CM300/CP1 cardioids > Nakamichi 550 > Maxell UDXLII. Set up in second mezzanine few rows back, mics hand-held by Tim Friend, recording by Joe Morrone. Transfer: MAC > Nakamichi CR-5A > Edirol FA-66 > Wavelab > CD-Wave > TLH > FLAC 2448 tagged. Transfer by Andrew F. 10/2011 
  Archive
Source Information - Download Text | Download Zip
GRATEFUL DEAD
Radio City Music Hall
New York NY
10-25-1980

24bit/48kHz file-set

s1t01 Deep Elem Blues
s1t02 The Race Is On
s1t03 I've Been All Around This World
s1t04 Monkey & the Engineer
s1t05 To Lay Me Down
s1t06 El Paso
s1t07 Birdsong
s1t08 Heaven Help the Fool
s1t09 Dire Wolf
s1t10 Ripple

s2t01 crowd & tuning
s2t02 Mississippi Half Step >
s2t03 Franklin's Tower
s2t04 Me & My Uncle >
s2t05 Big River
s2t06 High Time
s2t07 Minglewood Blues
s2t08 Ramble on Rose >
s2t09 Looks Like Rain
s2t10 Deal

S3t01 crowd & tuning
s3t02 Cold Rain & Snow
s3t03 Lost Sailor >
s3t04 Saint of Circumstance
s3t05 crowd & tuning
s3t06 Uncle John's Band >
s3t07 Playin' in the Band >
s3t08 Drums >
s3t09 Space >
s3t10 The Other One >
s3t11 Black Peter >
s3t12 Around & Around >
s3t13 One More Saturday Night
s3t14 Encore: U.S. Blues

AUD: 2x Nakamichi CM300/CP1 cardioids > Nakamichi 550 > Maxell UDXLII.
Set up in second mezzanine few rows back, mics hand-held by Tim Friend,
recording by Joe Morrone.

Transfer: MAC > Nakamichi CR-5A > Edirol FA-66 > Wavelab > CD-Wave >
TLH > FLAC 2448 tagged. Transfer by Andrew F. 10/2011

Notes: Big mic-bumps near the start of Deep Elem and Ripple. ID-93804
patch in Deep Elem 0:00 > 0:07, ID-102405 patch in Drums 2:40 > 3:57.

    length     expanded size    cdr  WAVE problems  fmt   ratio  filename
     6:01.233     104035040 B   cxx   --   ---xx   flac  0.7319  gd1980-10-25s1t01.flac
     3:13.573      55749164 B   cxx   --   ---xx   flac  0.7415  gd1980-10-25s1t02.flac
     5:01.760      86906924 B   cxx   --   ---xx   flac  0.7354  gd1980-10-25s1t03.flac
     2:50.133      48998444 B   cxx   --   ---xx   flac  0.7445  gd1980-10-25s1t04.flac
     9:02.640     156280364 B   cxx   --   ---xx   flac  0.7273  gd1980-10-25s1t05.flac
     5:06.973      88408364 B   cxx   --   ---xx   flac  0.7376  gd1980-10-25s1t06.flac
     8:56.907     154629164 B   cxx   --   ---xx   flac  0.7320  gd1980-10-25s1t07.flac
     7:08.547     123421484 B   cxx   --   ---xx   flac  0.7318  gd1980-10-25s1t08.flac
     3:27.960      59892524 B   cxx   --   ---xx   flac  0.7479  gd1980-10-25s1t09.flac
     4:46.381      82477892 B   cxx   --   ---xx   flac  0.7367  gd1980-10-25s1t10.flac
     0:47.613      13712684 B   cxx   --   ---xx   flac  0.6847  gd1980-10-25s2t01.flac
     7:07.187     123029804 B   cxx   --   ---xx   flac  0.7499  gd1980-10-25s2t02.flac
     8:06.133     140006444 B   cxx   --   ---xx   flac  0.7494  gd1980-10-25s2t03.flac
     3:00.307      51928364 B   cxx   --   ---xx   flac  0.7649  gd1980-10-25s2t04.flac
     6:08.027     105991724 B   cxx   --   ---xx   flac  0.7611  gd1980-10-25s2t05.flac
     9:10.147     158442284 B   cxx   --   ---xx   flac  0.7395  gd1980-10-25s2t06.flac
     8:14.253     142345004 B   cxx   --   ---xx   flac  0.7443  gd1980-10-25s2t07.flac
     6:47.533     117369644 B   cxx   --   ---xx   flac  0.7418  gd1980-10-25s2t08.flac
     7:30.160     129646124 B   cxx   --   ---xx   flac  0.7346  gd1980-10-25s2t09.flac
     6:45.309     116729012 B   cxx   --   ---xx   flac  0.7563  gd1980-10-25s2t10.flac
     1:38.400      28339244 B   cxx   --   ---xx   flac  0.7103  gd1980-10-25s3t01.flac
     6:25.960     111156524 B   cxx   --   ---xx   flac  0.7548  gd1980-10-25s3t02.flac
     6:42.267     115852844 B   cxx   --   ---xx   flac  0.7414  gd1980-10-25s3t03.flac
     6:38.547     114781484 B   cxx   --   ---xx   flac  0.7625  gd1980-10-25s3t04.flac
     1:32.507      26641964 B   cxx   --   ---xx   flac  0.7069  gd1980-10-25s3t05.flac
     6:21.573     109893164 B   cxx   --   ---xx   flac  0.7603  gd1980-10-25s3t06.flac
     9:59.440     172638764 B   cxx   --   ---xx   flac  0.7584  gd1980-10-25s3t07.flac
     9:13.828     159502496 B   cxx   --   ---xx   flac  0.7180  gd1980-10-25s3t08.flac
     5:21.147      92490284 B   cxx   --   ---xx   flac  0.6899  gd1980-10-25s3t09.flac
     3:52.360      66919724 B   cxx   --   ---xx   flac  0.7359  gd1980-10-25s3t10.flac
    10:09.107     175422764 B   cxx   --   ---xx   flac  0.7097  gd1980-10-25s3t11.flac
     3:55.960      67956524 B   cxx   --   ---xx   flac  0.7412  gd1980-10-25s3t12.flac
     4:42.027      81223724 B   cxx   --   ---xx   flac  0.7506  gd1980-10-25s3t13.flac
     5:36.376      96876428 B   cxx   --   ---xx   flac  0.7491  gd1980-10-25s3t14.flac
   201:22.274    3479696384 B                            0.7395  (34 files)

No errors occured.
Show Checksums
ffp
gd1980-10-25s1t01.flac:573f48b8c3a531c4eec2487e502159a5
gd1980-10-25s1t02.flac:4a35ecd12e1b91c0e7c066c0f590197a
gd1980-10-25s1t03.flac:f404a4d5e241ddd9140668e05cb53663
gd1980-10-25s1t04.flac:688d1b5d4133e006adf459c649b98c4e
gd1980-10-25s1t05.flac:2a68e182211ff28c15396ec7fdfae571
gd1980-10-25s1t06.flac:4e5822227860ae0d6c02c0823b0bb77f
gd1980-10-25s1t07.flac:6ed1f0234012e8eee537a286518db18a
gd1980-10-25s1t08.flac:d0a28f9feef077900d9237c9b3bfb2c7
gd1980-10-25s1t09.flac:533210cf87ae9bc403fc0f3f18a7b50c
gd1980-10-25s1t10.flac:12cfadf117796cd17ad437924eb6c634
gd1980-10-25s2t01.flac:dcf0c66bb42a157a975ce1b48269e437
gd1980-10-25s2t02.flac:70ab52ae83aacb4c5628a80b6ac09a54
gd1980-10-25s2t03.flac:8fbf04e272f300a794c200619deac008
gd1980-10-25s2t04.flac:1c33b2f50ce9e22756f9431490327fd2
gd1980-10-25s2t05.flac:56eee28684b7064461326bebe104967f
gd1980-10-25s2t06.flac:04353138825ae508ad9dae511509e701
gd1980-10-25s2t07.flac:01465dab0908b10f8b0c239d048759a5
gd1980-10-25s2t08.flac:8b376637e4a6a7ab98e6ff6909b71c82
gd1980-10-25s2t09.flac:c95e4358aa83dfa1a181293b6ef2e7a5
gd1980-10-25s2t10.flac:12f54a1df553a7d1cd43e6cfae3e2a03
gd1980-10-25s3t01.flac:712a6ad29a3abe85d63c3a4df5260dec
gd1980-10-25s3t02.flac:0f824f004e0e4dc8e1be1fc979ed6a20
gd1980-10-25s3t03.flac:fc67a2eebe8c789c9791b662d037a21d
gd1980-10-25s3t04.flac:da6cde7f546d92dbdfcd6320ef9a9db1
gd1980-10-25s3t05.flac:008f55c8b778fea7ed515f714e40a169
gd1980-10-25s3t06.flac:6409274999a8c129d0a16d04bbdfc899
gd1980-10-25s3t07.flac:bf80cec57c8e6e6ba71c8824624b8a00
gd1980-10-25s3t08.flac:d5ed27bb24a984592ff20bf8f63c443c
gd1980-10-25s3t09.flac:d63cfd48dd96a2dc9729c3307c890eb9
gd1980-10-25s3t10.flac:db0aeea66f7f0cae823680fc3561f5dd
gd1980-10-25s3t11.flac:67d6509ba6cfa6f010437081351595fd
gd1980-10-25s3t12.flac:c12ea456a9dd63976d43a4d86fb1a603
gd1980-10-25s3t13.flac:263cbf3be68f3a34e205d755cf681f4b
gd1980-10-25s3t14.flac:b0eca4bf96b746406b600d96adb376ef
flac-md5
d8ab020164f6b225f2c85517ec49bb07 *gd1980-10-25s1t01.flac
19de5c9b81d26cda4c50bc644f60c11e *gd1980-10-25s1t02.flac
267727ac5345ebd78b7b48f23d82988c *gd1980-10-25s1t03.flac
aa20187ffbe448abdb9e7f8bd5879cbc *gd1980-10-25s1t04.flac
5d4782268f8556101c9305420ffb75de *gd1980-10-25s1t05.flac
047f34390c19caffcbdd9595eaee6579 *gd1980-10-25s1t06.flac
12d8cd751c72a07d499f6f5157e985cc *gd1980-10-25s1t07.flac
2bb3fb0285678176ee04cbd15a9daf66 *gd1980-10-25s1t08.flac
6b9f98502040e3abf7262ee84aaf375d *gd1980-10-25s1t09.flac
0e2e0328b400dcb1722805a1510fc1ee *gd1980-10-25s1t10.flac
490905e5ad5e5c49e7c2a68911590315 *gd1980-10-25s2t01.flac
3939b5eb8e3c9b467d84d3c0d716f6fd *gd1980-10-25s2t02.flac
253298cbdb06ae7f99b47812f9c5276d *gd1980-10-25s2t03.flac
27501bf9163bc52da137c3f0c55def62 *gd1980-10-25s2t04.flac
f05de6a6ee2f49568014154782bb708b *gd1980-10-25s2t05.flac
3a31aa5db60f962c6e88836463034dab *gd1980-10-25s2t06.flac
e437847e5c9a8fd730e4e0dca65dd270 *gd1980-10-25s2t07.flac
37dac8548bcb613b8d5ed6e03570ea71 *gd1980-10-25s2t08.flac
db120866b33e94dbb16e384e1f039ca5 *gd1980-10-25s2t09.flac
e6ccf6d5055b901c74f8754b6a1e924c *gd1980-10-25s2t10.flac
de728e879ccd322fdfe8a33a73dca6eb *gd1980-10-25s3t01.flac
37daece00c68973168d4cb17e1ab5f06 *gd1980-10-25s3t02.flac
163ab2de3558f4f96788a98d78fd1f7e *gd1980-10-25s3t03.flac
1ef2459542f8cbc5d8a49d7401a5bc55 *gd1980-10-25s3t04.flac
62b4e88908a2b2ec097191c0b1cc57d3 *gd1980-10-25s3t05.flac
026ce0904ea981125fcfcff3089c3aab *gd1980-10-25s3t06.flac
76a94c053d5bf886a194c2aa65f7b612 *gd1980-10-25s3t07.flac
f03a133a8c1ec4cf2dcf1cc00e07ba5a *gd1980-10-25s3t08.flac
1ae6374477fed16481ae2f22b6626ec1 *gd1980-10-25s3t09.flac
74ca38cdf070eef005bbbd1307328ee5 *gd1980-10-25s3t10.flac
5272cebc344ece10fd73b2014e1f64bd *gd1980-10-25s3t11.flac
1f06a69b0136c0e68e4ae336154887eb *gd1980-10-25s3t12.flac
a735366cb3e6aa0d54a1717711907d8c *gd1980-10-25s3t13.flac
a1266668c21a1c1ba2deda72dc19408b *gd1980-10-25s3t14.flac

Comments
Add Comment
Other Sources (comments)
AUD>MC>DAT>CDR; Seeded to... (2) flac16; Recording... (0) flac16; Recording... (0) flac16; AUD: 2x... (0) flac16; Nak 700's >... (1)
Date User Comment