Browse Collections Artists Sources   Search Dates

Add Show    List Management    Help


Grateful Dead 10/25/80
Radio City Music Hall, New York, NY
Comments Add Comment    Source Collectors    Add to Collection    Add to Want List    History
Source # 116769 Other Sources
Entered by andrew
Checksums flac-md5 , ffp
Disc Counts 0 / 0
Media Size Compressed: 1.98 GB (2131315688 bytes)
Date Circulated
Date Added
10/28/2011
10/28/2011
Source Summary flac16; AUD: 2x Nakamichi CM300/CP1 cardioids > Nakamichi 550 > Maxell UDXLII. Set up in second mezzanine few rows back, mics hand-held by Tim Friend, recording by Joe Morrone. Transfer: MAC > Nakamichi CR-5A > Edirol FA-66 > Wavelab > CD-Wave > R8Brain > TLH > FLAC 1644 tagged. Transfer by Andrew F. 10/2011 
  Archive
Source Information - Download Text | Download Zip
GRATEFUL DEAD
Radio City Music Hall
New York NY
10-25-1980

16bit/44.1kHz file-set

s1t01 Deep Elem Blues
s1t02 The Race Is On
s1t03 I've Been All Around This World
s1t04 Monkey & the Engineer
s1t05 To Lay Me Down
s1t06 El Paso
s1t07 Birdsong
s1t08 Heaven Help the Fool
s1t09 Dire Wolf
s1t10 Ripple

s2t01 crowd & tuning
s2t02 Mississippi Half Step >
s2t03 Franklin's Tower
s2t04 Me & My Uncle >
s2t05 Big River
s2t06 High Time
s2t07 Minglewood Blues
s2t08 Ramble on Rose >
s2t09 Looks Like Rain
s2t10 Deal

S3t01 crowd & tuning
s3t02 Cold Rain & Snow
s3t03 Lost Sailor >
s3t04 Saint of Circumstance
s3t05 crowd & tuning
s3t06 Uncle John's Band >
s3t07 Playin' in the Band >
s3t08 Drums >
s3t09 Space >
s3t10 The Other One >
s3t11 Black Peter >
s3t12 Around & Around >
s3t13 One More Saturday Night
s3t14 Encore: U.S. Blues

AUD: 2x Nakamichi CM300/CP1 cardioids > Nakamichi 550 > Maxell UDXLII.
Set up in second mezzanine few rows back, mics hand-held by Tim Friend,
recording by Joe Morrone.

Transfer: MAC > Nakamichi CR-5A > Edirol FA-66 > Wavelab > CD-Wave >
R8Brain > TLH > FLAC 1644 tagged. Transfer by Andrew F. 10/2011

Notes: Big mic-bumps near the start of Deep Elem and Ripple. ID-93804
patch Deep Elem 0:00 > 0:07, ID-102405 patch Drums 2:40 > 3:57.

CDRs layout: D1 s1t01 > s2t03, D2 s2t04 > s3t04, D3 s3t05 > s3t14.

    length     expanded size    cdr  WAVE problems  fmt   ratio  filename
     6:01.17       63720428 B   ---   --   ---xx   flac  0.6152  gd1980-10-25s1t01.flac
     3:13.43       34146380 B   ---   --   ---xx   flac  0.6301  gd1980-10-25s1t02.flac
     5:01.57       53230508 B   ---   --   ---xx   flac  0.6201  gd1980-10-25s1t03.flac
     2:50.10       30011564 B   ---   --   ---xx   flac  0.6349  gd1980-10-25s1t04.flac
     9:02.48       95721740 B   ---   --   ---xx   flac  0.6067  gd1980-10-25s1t05.flac
     5:06.73       54150140 B   ---   --   ---xx   flac  0.6244  gd1980-10-25s1t06.flac
     8:56.68       94710380 B   ---   --   ---xx   flac  0.6146  gd1980-10-25s1t07.flac
     7:08.41       75595676 B   ---   --   ---xx   flac  0.6126  gd1980-10-25s1t08.flac
     3:27.72       36684188 B   ---   --   ---xx   flac  0.6383  gd1980-10-25s1t09.flac
     4:46.29       50518652 B   ---   --   ---xx   flac  0.6213  gd1980-10-25s1t10.flac
     0:47.46        8399036 B   ---   --   ---xx   flac  0.5442  gd1980-10-25s2t01.flac
     7:07.14       75355772 B   ---   --   ---xx   flac  0.6429  gd1980-10-25s2t02.flac
     8:06.10       85753964 B   ---   --   ---xx   flac  0.6418  gd1980-10-25s2t03.flac
     3:00.23       31806140 B   ---   --   ---xx   flac  0.6659  gd1980-10-25s2t04.flac
     6:08.02       64919948 B   ---   --   ---xx   flac  0.6592  gd1980-10-25s2t05.flac
     9:10.11       97045916 B   ---   --   ---xx   flac  0.6246  gd1980-10-25s2t06.flac
     8:14.19       87186332 B   ---   --   ---xx   flac  0.6321  gd1980-10-25s2t07.flac
     6:47.40       71888924 B   ---   --   ---xx   flac  0.6280  gd1980-10-25s2t08.flac
     7:30.12       79408268 B   ---   --   ---xx   flac  0.6164  gd1980-10-25s2t09.flac
     6:45.23       71496140 B   ---   --   ---xx   flac  0.6521  gd1980-10-25s2t10.flac
     1:38.30       17357804 B   ---   --   ---xx   flac  0.5813  gd1980-10-25s3t01.flac
     6:25.72       68083388 B   ---   --   ---xx   flac  0.6487  gd1980-10-25s3t02.flac
     6:42.20       70959884 B   ---   --   ---xx   flac  0.6277  gd1980-10-25s3t03.flac
     6:38.41       70303676 B   ---   --   ---xx   flac  0.6616  gd1980-10-25s3t04.flac
     1:32.38       16318220 B   ---   --   ---xx   flac  0.5716  gd1980-10-25s3t05.flac
     6:21.43       67309580 B   ---   --   ---xx   flac  0.6577  gd1980-10-25s3t06.flac
     9:59.33      105741260 B   ---   --   ---xx   flac  0.6548  gd1980-10-25s3t07.flac
     9:13.62       97695068 B   ---   --   ---xx   flac  0.5894  gd1980-10-25s3t08.flac
     5:21.11       56650316 B   ---   --   ---xx   flac  0.5444  gd1980-10-25s3t09.flac
     3:52.27       40988348 B   ---   --   ---xx   flac  0.6190  gd1980-10-25s3t10.flac
    10:09.08      107446460 B   ---   --   ---xx   flac  0.5767  gd1980-10-25s3t11.flac
     3:55.72       41623388 B   ---   --   ---xx   flac  0.6280  gd1980-10-25s3t12.flac
     4:42.02       49749548 B   ---   --   ---xx   flac  0.6424  gd1980-10-25s3t13.flac
     5:36.29       59338652 B   ---   --   ---xx   flac  0.6411  gd1980-10-25s3t14.flac
   201:22.21     2131315688 B                            0.6252  (34 files)

No errors occured.
Show Checksums
flac-md5
d067978b96017045311c9634ce566081 *gd1980-10-25s1t01.flac
ad2205d375614822cfc0e69c06e1173a *gd1980-10-25s1t02.flac
21103d75c7134f4264043f4e419e991e *gd1980-10-25s1t03.flac
008d34b0554bd33f3cfe894f15b53ae7 *gd1980-10-25s1t04.flac
08e6f8587d8ca895b36830086c785d00 *gd1980-10-25s1t05.flac
92cf1095c2897afad0c0ecddad34b57b *gd1980-10-25s1t06.flac
64d2d2c88c4388d184c58db9ac44c9aa *gd1980-10-25s1t07.flac
450c780a5b110351f8dc33a857336918 *gd1980-10-25s1t08.flac
7325a219bdb2b9541d0b772c6a1474c9 *gd1980-10-25s1t09.flac
36b55d5d5b951c431894d25d42749ba6 *gd1980-10-25s1t10.flac
17428473bc05bec8f92b3372df59644b *gd1980-10-25s2t01.flac
66d2d2661395a48c5b3d49e13267ca19 *gd1980-10-25s2t02.flac
f39a183af7b2805b0065a56f51ab5245 *gd1980-10-25s2t03.flac
c0e34fe43d12002c1d692389671658ce *gd1980-10-25s2t04.flac
e6e872760cb0f0d4b2b21026c02e4131 *gd1980-10-25s2t05.flac
96cfd93b4e2167aa272b3a61e5eb9658 *gd1980-10-25s2t06.flac
0380b2205696e5cd301a5a9eb44c11a2 *gd1980-10-25s2t07.flac
72e0abb42e52bfde58ed33ab03b57e17 *gd1980-10-25s2t08.flac
4b0fc16beba1b755540d7a2fdd96fbee *gd1980-10-25s2t09.flac
cbfb70cea7115708e322babe0e64cdc1 *gd1980-10-25s2t10.flac
4d1e026e71a9c0bd58093f710a35134f *gd1980-10-25s3t01.flac
9b2bffcf9915d57d71fe60547bc119d9 *gd1980-10-25s3t02.flac
2706c4daa2e6a3e49a1b127a35485123 *gd1980-10-25s3t03.flac
a61a9a3cfcd6e5287c26c0c92aa07c6f *gd1980-10-25s3t04.flac
6512f4ba51475ffd9f84bf049cb4f6e9 *gd1980-10-25s3t05.flac
0e0d835179345ac88e9c6f314f4ec0b4 *gd1980-10-25s3t06.flac
92d3d92cad0d2e9bd65a53ae38bb42b7 *gd1980-10-25s3t07.flac
da367d2b02db22b63ce60f12f071e059 *gd1980-10-25s3t08.flac
9a8c3c5a60cbc83622df7632d4e0dd02 *gd1980-10-25s3t09.flac
e918736e2fc4d3275cd46f0dea823e3d *gd1980-10-25s3t10.flac
8373c2672f360f8dca3d7443d6e06100 *gd1980-10-25s3t11.flac
9fd50933c475ffa7725149dea5e3c9c2 *gd1980-10-25s3t12.flac
e035e29f00c7dfa2dc6d77477394fa46 *gd1980-10-25s3t13.flac
51e6d4213ce64ca7d6db00eba4559ff5 *gd1980-10-25s3t14.flac
ffp
gd1980-10-25s1t01.flac:15f54fd927bb842eabce94b5f179d66a
gd1980-10-25s1t02.flac:0f862065082959d4ecd6475102eabb2a
gd1980-10-25s1t03.flac:53aa9837b8eb40f1064b051e39de3c66
gd1980-10-25s1t04.flac:23abb467b17ccde5ab291d11ff822c47
gd1980-10-25s1t05.flac:e3dcd683fac78ced4a5b0e8bfdb4b851
gd1980-10-25s1t06.flac:6b39084933be0ec684920418d85bb3f0
gd1980-10-25s1t07.flac:e897147fc2c5a53302ad2437fe795e0b
gd1980-10-25s1t08.flac:c6804e2f5091a816fa6f7796e95c0117
gd1980-10-25s1t09.flac:9bdc28295fe370b62c4e26f4e60a5fbb
gd1980-10-25s1t10.flac:5d4bbb582b929399cbb6699a39f5c968
gd1980-10-25s2t01.flac:41e6171277dd588e7fa6a9daa2f8abe4
gd1980-10-25s2t02.flac:011d02b70838094417a5663c0a687d1c
gd1980-10-25s2t03.flac:bdbf1d45c82989782ee64538afdb12a8
gd1980-10-25s2t04.flac:06878d0a14b395bd42803378472a5fdc
gd1980-10-25s2t05.flac:9ce09ffd7013159a7614d546448f69d9
gd1980-10-25s2t06.flac:edcd440ca0a2b4d16bb4121a7641015a
gd1980-10-25s2t07.flac:c11706d48c3bde9e158782f950dea0a2
gd1980-10-25s2t08.flac:7372e5b749f3271b32a4feaf8a71ebd6
gd1980-10-25s2t09.flac:bcf1484f21484d32b372df8db47a6c77
gd1980-10-25s2t10.flac:f4dc71317c0b97dc1c16207b6d4ebb65
gd1980-10-25s3t01.flac:69d00ef275fe611dce2e3a4ae7fb2b8e
gd1980-10-25s3t02.flac:58c64036a8c478d30b3b0ce61fe4d3ed
gd1980-10-25s3t03.flac:4c3c7b51f3959a31f14bfa102aec137f
gd1980-10-25s3t04.flac:4e30bfe08b210b05b8406d49a139653f
gd1980-10-25s3t05.flac:3779fb77be1fb247e541bef3c9072a17
gd1980-10-25s3t06.flac:f40f2df2966f29749e02d8e31a8b5bb1
gd1980-10-25s3t07.flac:7e7add9ea0d014dde611b6b300e5dd56
gd1980-10-25s3t08.flac:5763eba232421e1466fed4014e8ecb23
gd1980-10-25s3t09.flac:6e51d323f38f9827c73b536ada85914d
gd1980-10-25s3t10.flac:65458120b62bad7e25cf1769281e5de5
gd1980-10-25s3t11.flac:118cb316e2c007fff2df0075bc15532f
gd1980-10-25s3t12.flac:ee4d3660482cdbda6d8a9bd291db9832
gd1980-10-25s3t13.flac:dde8fe3ece923935c3cb0a64b37eb607
gd1980-10-25s3t14.flac:f3f44c95881e99da19da38c91250b4ef

Comments
Add Comment
Other Sources (comments)
AUD>MC>DAT>CDR; Seeded to... (2) flac16; Recording... (0) flac16; Recording... (0) flac24; AUD: 2x... (0) flac16; Nak 700's >... (1)
Date User Comment