Browse Collections Artists Sources   Search Dates

Add Show    List Management    Help


Club d'Elf 12/03/10
Lizard Lounge, Cambridge, MA
Comments Add Comment    Source Collectors    Add to Collection    Add to Want List    History
Source # 116975 Other Sources
Entered by
Checksums ffp
Disc Counts 0 / 0
Media Size
Date Circulated
Date Added
12/05/10
11/07/2011
Source Summary Source: Schoeps CCM4V'S(din)>Lunatec V2>Benchmark AD2K> Sound Devices 722 (24/48)
FOB/DFC/KFC/ZFC/AARP Stage Lip, 4' High
DSP: Sound Devices 722>Sound Forge 9.0>CD Wave>flac(16)
Recorded By: Z-Man 
Source Information - Download Text | Download Zip
Club d'Elf Late Show
Benefit For Kousmat Mohammed
Lizard Lounge
Cambridge, Massachusetts
12/3/2010

Source: Schoeps CCM4V'S(din)>Lunatec V2>Benchmark AD2K>
Sound Devices 722 (24/48)
FOB/DFC/KFC/ZFC/AARP Stage Lip, 4' High
DSP: Sound Devices 722>Sound Forge 9.0>CD Wave>flac(16)
Recorded By: Z-Man
Seeded By: Z-Man

Disc I

Hassan Hakmoun And Brahim Fribgane Duet
01 Intro By Mike Rivard
02 ?
03 ?
04 ?
Club d'Elf:
05 *Brahim Solo >
06 **Sidi Rabi >
07 Percussion Solo >
08 *Sidi Rabi
09 *#@Zeed al Maal
10 Tuning/Banter
11 *#$

Disc II

01 *#$%? >
02 #$%Percussion Solo >
03 *#$%Jam
04 Banter/Tuning
05 *$+?
06 David Slide Guitar Solo >
07 *$Jar of Hair >
08 *$^Berber Song

* With Brahim Fribgane On Electric Lute
# With Hassan Hakmoun On Sintir, Vocals, And Percussion
@ With Mike Rivard On Sintir
$ With ? On Percussion
% With ? On Percussion
+ With Bujma Raswe On Flute
^ With Yaure Muniz On Trumpet And Angel Sabaro  On Trombone

Club d'Elf:

Mike Rivard - Bass, Electric Bass, Sintir
Dave Tronzo - Slide Guitar
Paul Schultheis - Rhodes And Moog
Vicente Lebron - Percussion
Dean Johnston - Drums

Show Notes: It was a terrific night of World Class music! Being right there a couple feet from the musicians was so special! Rob Adler was taping right next to me, great to hang Brother. And of course the night would not be complete without David Lubell in the house! A scary moment during the last song. I was cringing as Angel was tearing up his Trombone solo. His slide on the Trombone was coming within inches of my Schoeps. Well, my heart sank as he actually hit my left mic! you can hear it twice at the 8:53 and 8:54 mark on track 08 of Disc II. Stage Lip recording can be dangerous! I tried my best to get all the guests listed correctly, any corrections will be welcomed.

Flac Fingerprint

2010-12-03lated01t01.flac:f5c8ee267f07e04fdedd55e73fda960d
2010-12-03lated01t02.flac:8a19c2f30ea64c5896f29e87bc4a0078
2010-12-03lated01t03.flac:d73722630eedecbc5ec0d0b4fff1eee1
2010-12-03lated01t04.flac:b0e1eaddf67ea41b1cc2260d68915563
2010-12-03lated01t05.flac:d5b96ea86e20064b968c6d53d089f9ac
2010-12-03lated01t06.flac:f6135ab34645e43fa25803e2d7cdb1d4
2010-12-03lated01t07.flac:489bb75d71dc93c52b12f082a7f1a8f9
2010-12-03lated01t08.flac:8b88e414c89a702032573a47d51ce8c6
2010-12-03lated01t09.flac:7957154ac23bc535908bca6d498a20bd
2010-12-03lated01t10.flac:9d2408f921bfc8229a3030bc3765b7af
2010-12-03lated01t11.flac:df4a7917dcc18013f186f996a14e8ae2
2010-12-03lated02t01.flac:11ca168288939e2a3b8d9738ed7653e5
2010-12-03lated02t02.flac:a72f7d3646b0e27bef82f08d66debe8d
2010-12-03lated02t03.flac:cc715274e801fa3f446aaacd29f14039
2010-12-03lated02t04.flac:f2d43a67c1e4f6d471e4d1875b1903fb
2010-12-03lated02t05.flac:f969bcc1d7cf416aad022ad68af9cb27
2010-12-03lated02t06.flac:eea921c967b70165a7e8875557eb756c
2010-12-03lated02t07.flac:45a716bc9daa465db61cbdcc2f99bb98
2010-12-03lated02t08.flac:af0d390d10094d56ae6d19a64a1ee270

Shntool

    length     expanded size    cdr  WAVE problems  fmt   ratio  filename
     0:32.62        5790668 B   ---   --   ---xx   flac  0.3522  2010-12-03lated01t01.flac
     8:23.04       88738652 B   ---   --   ---xx   flac  0.3867  2010-12-03lated01t02.flac
     6:56.52       73504748 B   ---   --   ---xx   flac  0.4415  2010-12-03lated01t03.flac
     5:16.13       55773020 B   ---   --   ---xx   flac  0.3681  2010-12-03lated01t04.flac
     2:05.46       22158236 B   ---   --   ---xx   flac  0.2719  2010-12-03lated01t05.flac
     6:02.28       63922700 B   ---   --   ---xx   flac  0.3954  2010-12-03lated01t06.flac
     1:17.45       13688684 B   ---   --   ---xx   flac  0.3773  2010-12-03lated01t07.flac
     8:26.74       89432492 B   ---   --   ---xx   flac  0.5022  2010-12-03lated01t08.flac
    10:30.16      111169676 B   ---   --   ---xx   flac  0.5672  2010-12-03lated01t09.flac
     2:11.71       23275436 B   ---   --   ---xx   flac  0.3186  2010-12-03lated01t10.flac
     7:07.25       75381644 B   ---   --   ---xx   flac  0.4793  2010-12-03lated01t11.flac
     6:18.74       66853292 B   ---   --   ---xx   flac  0.5655  2010-12-03lated02t01.flac
     0:51.50        9114044 B   ---   --   ---xx   flac  0.5723  2010-12-03lated02t02.flac
     5:34.24       58974092 B   ---   --   ---xx   flac  0.5763  2010-12-03lated02t03.flac
     2:14.66       23792876 B   ---   --   ---xx   flac  0.3316  2010-12-03lated02t04.flac
     9:36.71      101773436 B   ---   --   ---xx   flac  0.4077  2010-12-03lated02t05.flac
     3:33.43       37674380 B   ---   --   ---xx   flac  0.2929  2010-12-03lated02t06.flac
     9:16.25       98137244 B   ---   --   ---xx   flac  0.5879  2010-12-03lated02t07.flac
    13:09.02      139184348 B   ---   --   ---xx   flac  0.5685  2010-12-03lated02t08.flac
   109:26.41     1158339668 B                            0.4762  (19 files)



Show Checksums
ffp
2010-12-03lated01t01.flac:f5c8ee267f07e04fdedd55e73fda960d
2010-12-03lated01t02.flac:8a19c2f30ea64c5896f29e87bc4a0078
2010-12-03lated01t03.flac:d73722630eedecbc5ec0d0b4fff1eee1
2010-12-03lated01t04.flac:b0e1eaddf67ea41b1cc2260d68915563
2010-12-03lated01t05.flac:d5b96ea86e20064b968c6d53d089f9ac
2010-12-03lated01t06.flac:f6135ab34645e43fa25803e2d7cdb1d4
2010-12-03lated01t07.flac:489bb75d71dc93c52b12f082a7f1a8f9
2010-12-03lated01t08.flac:8b88e414c89a702032573a47d51ce8c6
2010-12-03lated01t09.flac:7957154ac23bc535908bca6d498a20bd
2010-12-03lated01t10.flac:9d2408f921bfc8229a3030bc3765b7af
2010-12-03lated01t11.flac:df4a7917dcc18013f186f996a14e8ae2
2010-12-03lated02t01.flac:11ca168288939e2a3b8d9738ed7653e5
2010-12-03lated02t02.flac:a72f7d3646b0e27bef82f08d66debe8d
2010-12-03lated02t03.flac:cc715274e801fa3f446aaacd29f14039
2010-12-03lated02t04.flac:f2d43a67c1e4f6d471e4d1875b1903fb
2010-12-03lated02t05.flac:f969bcc1d7cf416aad022ad68af9cb27
2010-12-03lated02t06.flac:eea921c967b70165a7e8875557eb756c
2010-12-03lated02t07.flac:45a716bc9daa465db61cbdcc2f99bb98
2010-12-03lated02t08.flac:af0d390d10094d56ae6d19a64a1ee270

Comments
Add Comment
Date User Comment