Browse Collections Artists Sources   Search Dates

Add Show    List Management    Help


Ratdog 08/24/95
Count Basie Theatre, Red Bank, NJ
Comments Add Comment    Source Collectors    Add to Collection    Add to Want List    History
Source # 117194 Other Sources
Entered by ziko
Checksums ffp , md5
Disc Counts 1 / 2
Media Size Compressed: 661.1 MB (693214059 bytes)
Date Circulated
Date Added

11/17/2011
Source Summary (FOB/14th Row) Schoeps MK4 -> Dat (44.1k); Transfer Info:Dat (Tascam DA-20) -> Tascam SS-R05 -> Samplitude Professional v11.2 -> FLAC; Recorded By Dan Sisler; All Transfers and Mastering By Charlie Miller 
  Archive
Source Information - Download Text | Download Zip
Ratdog - August 24, 1995
Count Basie Theatre - Red Bank, NJ

Recording Info:
(FOB/14th Row) Schoeps MK4 -> Dat (44.1k)

Transfer Info:
Dat (Tascam DA-20) -> Tascam SS-R05 -> Samplitude Professional v11.2 -> FLAC
(2 Discs Audio / 1 Disc FLAC)

All Transfers and Mastering By Charlie Miller
[email protected]
November 16, 2011

Notes:
-- Disc change is seamless
-- Recorded by Dan Sisler

Setlist:
d1t01 - Tuning
d1t02 - Walkin' Blues
d1t03 - Festival
d1t04 - Take Me To The River
d1t05 - City Girls ->
d1t06 - Fever ->
d1t07 - Eternity
d1t08 - Blackbird
d1t09 - K.C. Moan
d1t10 - Stuck Inside Of Mobile With The Memphis Blues Again
d1t11 - Good Morning Little Schoolgirl
d1t12 - This Time Forever ->
d1t13 - Shade Of Grey ->
d1t14 - The Winners ->
d1t15 - Easy To Slip ->
d2t01 - Bass/Drums ->
d2t02 - Victim Or The Crime ->
d2t03 - Josephine

Encore:
d2t04 - Easy Answers
d2t05 - Knockin' On Heaven's Door


SHNTOOL OUTPUT:
    length     expanded size   cdr  WAVE problems filename
     0:57.72       10224188    ---   --   ---xx   ratdog1995-08-24d1t01.flac
     5:08.31       54404156    ---   --   ---xx   ratdog1995-08-24d1t02.flac
     4:49.49       51094892    ---   --   ---xx   ratdog1995-08-24d1t03.flac
     4:35.67       48667628    ---   --   ---xx   ratdog1995-08-24d1t04.flac
     4:00.45       42441884    ---   --   ---xx   ratdog1995-08-24d1t05.flac
     4:42.05       49756604    ---   --   ---xx   ratdog1995-08-24d1t06.flac
     7:56.15       84001724    ---   --   ---xx   ratdog1995-08-24d1t07.flac
     2:22.49       25164092    ---   --   ---xx   ratdog1995-08-24d1t08.flac
     3:12.08       33887660    ---   --   ---xx   ratdog1995-08-24d1t09.flac
     8:20.09       88221212    ---   --   ---xx   ratdog1995-08-24d1t10.flac
     4:16.58       45294860    ---   --   ---xx   ratdog1995-08-24d1t11.flac
     4:25.30       46816604    ---   --   ---xx   ratdog1995-08-24d1t12.flac
     4:47.63       50775020    ---   --   ---xx   ratdog1995-08-24d1t13.flac
     3:57.18       41849180    ---   --   ---xx   ratdog1995-08-24d1t14.flac
     5:48.63       61535420    ---   --   ---xx   ratdog1995-08-24d1t15.flac
    11:03.55      117082604    ---   --   ---xx   ratdog1995-08-24d2t01.flac
     6:36.25       69913244    ---   --   ---xx   ratdog1995-08-24d2t02.flac
    11:06.61      117625916    ---   --   ---xx   ratdog1995-08-24d2t03.flac
     6:47.33       71872460    ---   --   ---xx   ratdog1995-08-24d2t04.flac
     5:08.48       54444140    ---   --   ---xx   ratdog1995-08-24d2t05.flac
   110:04.54     1165073488 B                     (totals for 20 files)
Show Checksums
ffp
ratdog1995-08-24d1t01.flac:e0621a07609b29017ae7141185a08b2b
ratdog1995-08-24d1t02.flac:726ea82e6dd663f64e7c47957a4e09e2
ratdog1995-08-24d1t03.flac:24820fb1c6b83c68bc87f496758e0d3b
ratdog1995-08-24d1t04.flac:58914e3d38732cdbf9cbfd582cd80a28
ratdog1995-08-24d1t05.flac:6df0030e56a49706db674fc1f4cbf741
ratdog1995-08-24d1t06.flac:fe47098676748d0c47bce4da85042e29
ratdog1995-08-24d1t07.flac:c65a818fd7b87701d446c73df0fb2ea1
ratdog1995-08-24d1t08.flac:55a57dad2870bba2599e020eaf455842
ratdog1995-08-24d1t09.flac:7367f4b01660e95a496e38941513c739
ratdog1995-08-24d1t10.flac:09e7c8956ec4e0c7a725889fffb8cb3d
ratdog1995-08-24d1t11.flac:3ab393473d418a2f6b32e19f0429c600
ratdog1995-08-24d1t12.flac:d299b9e18f1f94f2aaf5b708412a0e01
ratdog1995-08-24d1t13.flac:735415692281d0c3f67fe8036e51cbea
ratdog1995-08-24d1t14.flac:5e04a0a9c2c809490b7d79738fbe8666
ratdog1995-08-24d1t15.flac:abf3b4d0d306b5cfef88a5d4928d77e2
ratdog1995-08-24d2t01.flac:d69a08a931643953b53cb450d92eebc8
ratdog1995-08-24d2t02.flac:0c713b8e6810553015607c36710fd5ac
ratdog1995-08-24d2t03.flac:d638b9ce25c72c6d9d778b24a6c65351
ratdog1995-08-24d2t04.flac:cf9b532656e07b81ba83f55259b1b12f
ratdog1995-08-24d2t05.flac:dead3895090e8bcb854d6083cd536c5d
md5
8e96ce1f9f37b94008f352c1dd89c6ef *ratdog1995-08-24d1t01.flac
0129d8fccc7de6bf6ea96d5665ecfbe2 *ratdog1995-08-24d1t02.flac
164c4c7ff24ad1fe587e41cadaa35e47 *ratdog1995-08-24d1t03.flac
95039c49432f720452c254745bf72eb3 *ratdog1995-08-24d1t04.flac
5097f570ae0825646cc52f5d5e4a99f7 *ratdog1995-08-24d1t05.flac
3feafd32018db1dbb58620ebbf446cda *ratdog1995-08-24d1t06.flac
50a7cadab5e82bcd34071db035876ac1 *ratdog1995-08-24d1t07.flac
33d1e135eaec2da2113805a1a1f56321 *ratdog1995-08-24d1t08.flac
db3d097d6d5d2644287fdb4f125ad1ab *ratdog1995-08-24d1t09.flac
cfab89987561f8daf8f1abfd8d45cd56 *ratdog1995-08-24d1t10.flac
022edd9dcfa1b8d41bc06c31b9a5a3b3 *ratdog1995-08-24d1t11.flac
1c0da1d719f577f30ff33b034028116d *ratdog1995-08-24d1t12.flac
d552a76680f2aff385998a0d2e2f6c8f *ratdog1995-08-24d1t13.flac
b987f7c681c04e2e8b54607cd6f59bc0 *ratdog1995-08-24d1t14.flac
4eede08d82274d6f8e8a79c557b0d6fd *ratdog1995-08-24d1t15.flac
8ef63367fdb736df031d35dff5a53231 *ratdog1995-08-24d2t01.flac
0cd96343dfc9cdf0ebe44d38d9bdeb9c *ratdog1995-08-24d2t02.flac
d9d9cc96f98e1f6b03fc71c14bc71382 *ratdog1995-08-24d2t03.flac
efb0b1b0cf7127b987ff96f5a92510a9 *ratdog1995-08-24d2t04.flac
e4db619eb91187906d428bd1c4b2c1c4 *ratdog1995-08-24d2t05.flac

Comments
Add Comment
Date User Comment