Browse Collections Artists Sources   Search Dates

Add Show    List Management    Help


Gov't Mule 09/22/96
Caravan of Dreams, Fort Worth, TX
Comments Add Comment    Source Collectors    Add to Collection    Add to Want List    History
Source # 117560 Other Sources
Entered by Albix
Checksums flac.ffp , flac.md5
Disc Counts 1 / 2
Media Size
Date Circulated
Date Added
12/09/2011
12/09/2011
Source Summary flac16; SBD > XLR/RCA > Tascam DA-P1 > Master DAT > 1st Gen-DAT clone
Transfer/Lineage: 1st Gen DAT clone/Sony Professional DTC-ZA5es>
coax> Audiophile 2496> Wavelab 5.0> .wav @ 16/44.1> TLH> flac16>
TLH> WaveLab 6.10> .wav @ 16/44.1> CD Wave Editor> TLH> fla16
DATS supplied by Joe Samaritano
Transferred by Matt Rappaport aka Muletaper
Edited and mastered by Alex Ford and Muletaper 
Source Information - Download Text | Download Zip
Gov't Mule
9/22/1996 - Sunday
Caravan of Dreams
Fort Worth, TX

Source: SBD > XLR/RCA > Tascam DA-P1 > Master DAT > 1st Gen-DAT clone

Transfer/Lineage: 1st Gen DAT clone/Sony Professional DTC-ZA5es>
coax> Audiophile 2496> Wavelab 5.0> .wav @ 16/44.1> TLH> flac16>
TLH> WaveLab 6.10> .wav @ 16/44.1> CD Wave Editor> TLH> fla16

DATS supplied by Joe Samaritano
Transferred by Matt Rappaport aka Muletaper
Edited and mastered by Alex Ford and Muletaper


d1t01. crowd/tuning (0:40)
d1t02. Grinnin' In Your Face > (1:38)
d1t03. Mule > (5:46)
d1t04. Rocking Horse > (4:14)
d1t05. Temporary Saint (5:42)
d1t06. Don't Step On The Grass, Sam (7:33)
d1t07. Birth Of The Mule (8:21)
d1t08. Thelonius Beck > (3:30)
d1t09. Game Face (8:27)
d1t10. She Said, She Said (4:28)
d1t11. Gambler's Roll (8:19)
d1t12. Kind Of Bird (10:12)
d2t01. Pygmy Twylyte > (2:30)
d2t02. Blind Man In The Dark > (5:15)
d2t03. Drums > (4:27)
d2t04. Blind Man In The Dark (2:06)
d2t05. Presence Of The Lord (6:53)
d2t06. Just Got Paid > (4:43)
d2t07. Who Do You Love? > (1:22)
d2t08. Just Got Paid (5:23)
Encore:
d2t09. Goin' Out West > (6:15)
d2t10. Gonna Send You Back To Georgia > (2:33)
d2t11. Come On In My Kitchen tease > (4:05)
d2t12. Gonna Send You Back To Georgia (2:31)


Comments:

- Thanks to Joe for supplying the DATS!

- Free Show

Notes:

- All editing and mastering with UAD-1 in 16/44.1

- SBE Free. Meta tagging with Tag&Rename.


Shnlen Output:

    length     expanded size    cdr  WAVE problems  fmt   ratio  filename
     0:40.51        7175996 B   ---   --   -----    wav  1.0000  gm1996-09-22-sbd-d1t01.wav
     1:38.42       17386028 B   ---   --   -----    wav  1.0000  gm1996-09-22-sbd-d1t02.wav
     5:46.18       61076780 B   ---   --   -----    wav  1.0000  gm1996-09-22-sbd-d1t03.wav
     4:14.28       44871500 B   ---   --   -----    wav  1.0000  gm1996-09-22-sbd-d1t04.wav
     5:42.63       60477020 B   ---   --   -----    wav  1.0000  gm1996-09-22-sbd-d1t05.wav
     7:33.67       80066828 B   ---   --   -----    wav  1.0000  gm1996-09-22-sbd-d1t06.wav
     8:21.09       88397612 B   ---   --   -----    wav  1.0000  gm1996-09-22-sbd-d1t07.wav
     3:30.16       37081676 B   ---   --   -----    wav  1.0000  gm1996-09-22-sbd-d1t08.wav
     8:27.64       89585372 B   ---   --   -----    wav  1.0000  gm1996-09-22-sbd-d1t09.wav
     4:28.19       47319932 B   ---   --   -----    wav  1.0000  gm1996-09-22-sbd-d1t10.wav
     8:19.68       88183580 B   ---   --   -----    wav  1.0000  gm1996-09-22-sbd-d1t11.wav
    10:12.68      108116780 B   ---   --   -----    wav  1.0000  gm1996-09-22-sbd-d1t12.wav
     2:30.45       26565884 B   ---   --   -----    wav  1.0000  gm1996-09-22-sbd-d2t01.wav
     5:15.00       55566044 B   ---   --   -----    wav  1.0000  gm1996-09-22-sbd-d2t02.wav
     4:27.35       47181164 B   ---   --   -----    wav  1.0000  gm1996-09-22-sbd-d2t03.wav
     2:06.03       22233500 B   ---   --   -----    wav  1.0000  gm1996-09-22-sbd-d2t04.wav
     6:53.40       72947324 B   ---   --   -----    wav  1.0000  gm1996-09-22-sbd-d2t05.wav
     4:43.46       50029436 B   ---   --   -----    wav  1.0000  gm1996-09-22-sbd-d2t06.wav
     1:22.11       14490716 B   ---   --   -----    wav  1.0000  gm1996-09-22-sbd-d2t07.wav
     5:23.73       57148940 B   ---   --   -----    wav  1.0000  gm1996-09-22-sbd-d2t08.wav
     6:15.07       66166508 B   ---   --   -----    wav  1.0000  gm1996-09-22-sbd-d2t09.wav
     2:33.04       26998652 B   ---   --   -----    wav  1.0000  gm1996-09-22-sbd-d2t10.wav
     4:05.66       43373276 B   ---   --   -----    wav  1.0000  gm1996-09-22-sbd-d2t11.wav
     2:31.55       26765804 B   ---   --   -----    wav  1.0000  gm1996-09-22-sbd-d2t12.wav
   117:04.73     1239206352 B                            1.0000  (24 files)

Show Checksums
flac.ffp
gm1996-09-22-sbd-d1t01.flac:abfad9a11424623ec581e73050a17d9e
gm1996-09-22-sbd-d1t02.flac:56d1597f509f52bd15f89cfa5231bf14
gm1996-09-22-sbd-d1t03.flac:8d2ca73bd219973033d1df12cbca31be
gm1996-09-22-sbd-d1t04.flac:03a5703a3daccd3ee7f6ae1faecea75e
gm1996-09-22-sbd-d1t05.flac:fa7d8faa561791d44bc345584628487a
gm1996-09-22-sbd-d1t06.flac:edaa0d25ffc5f88fe5984f6dcd02ce87
gm1996-09-22-sbd-d1t07.flac:48acd0028a15fd628cde205a6cf1e37a
gm1996-09-22-sbd-d1t08.flac:7ec738be02ebf3d511f6821ed40a4187
gm1996-09-22-sbd-d1t09.flac:6d558b41c474a5e2557aba29b981707c
gm1996-09-22-sbd-d1t10.flac:c641c8f55c04a8981c036ccae3f03e50
gm1996-09-22-sbd-d1t11.flac:a8e63813d93915193bbaebf6007f7df6
gm1996-09-22-sbd-d1t12.flac:23cd30ec31d66a27a26830a7613e5108
gm1996-09-22-sbd-d2t01.flac:178a08326260e89aaa6f739e187cb0c3
gm1996-09-22-sbd-d2t02.flac:a83e4ada798bf3220c4652346aa45c08
gm1996-09-22-sbd-d2t03.flac:f94eb3f0ebdeea58c0ecbc5850cff5f6
gm1996-09-22-sbd-d2t04.flac:ed9114ba2e748e6b1f757700dd49fec8
gm1996-09-22-sbd-d2t05.flac:b644e037dc16ae112f8d8831386c2a66
gm1996-09-22-sbd-d2t06.flac:6f6f3f80feb9b6230e97a56bacab9e05
gm1996-09-22-sbd-d2t07.flac:d90ece10a8278661d51f9db4c274137d
gm1996-09-22-sbd-d2t08.flac:bd1bece9ff72e7e4da4d8617e3dece8d
gm1996-09-22-sbd-d2t09.flac:0e829b5a1bcf4fcc2445ffcd8985cb88
gm1996-09-22-sbd-d2t10.flac:3fe371f4fbfc701e7a89c02d7bd9cf99
gm1996-09-22-sbd-d2t11.flac:0ffb7157073896b562c208a94c1941de
gm1996-09-22-sbd-d2t12.flac:3f1de8b8a150d9b66569968ffddde805
flac.md5
5e9941daa5a9ee08d7907d7552fefad8 *gm1996-09-22-sbd-cd_cover.jpg
71e5373c8a7fef6911ce4a910dccb308 *gm1996-09-22-sbd-d1t01.flac
fd92f27613e447513d4ae903e7a3c1c8 *gm1996-09-22-sbd-d1t02.flac
c266e90905fac2159bfc00d9863b3823 *gm1996-09-22-sbd-d1t03.flac
280f4d2fbc2c827bf3037c7688a4a05b *gm1996-09-22-sbd-d1t04.flac
56d0f7795df831e031d622af95accd22 *gm1996-09-22-sbd-d1t05.flac
c6232a349f06e13dd081e515aec5da24 *gm1996-09-22-sbd-d1t06.flac
6b9cc50b3108b37eddf63611aa55abfd *gm1996-09-22-sbd-d1t07.flac
3eeee4ed8478d5be15e19a6d0532f5bb *gm1996-09-22-sbd-d1t08.flac
a7563e7a837922b80439ded22ff1f4f3 *gm1996-09-22-sbd-d1t09.flac
0282035132f1b35f421133c3cf2fec6c *gm1996-09-22-sbd-d1t10.flac
b75a0d8839c1dc39c40647189c367fd8 *gm1996-09-22-sbd-d1t11.flac
b833ae47bc5d2ca10de5d4c045f4082b *gm1996-09-22-sbd-d1t12.flac
ce12b860cffd98fcee4c7f1dd57aa856 *gm1996-09-22-sbd-d2t01.flac
1b15ed710d0da590628adb09669edda7 *gm1996-09-22-sbd-d2t02.flac
64b98081f6d18ae2f30e2a400efa605d *gm1996-09-22-sbd-d2t03.flac
f6e927719c760dc448d8665ef1b1b233 *gm1996-09-22-sbd-d2t04.flac
650774ec74241e11e71403fa6e504104 *gm1996-09-22-sbd-d2t05.flac
181ce9befc4603d73c4922e1a0ec1f3a *gm1996-09-22-sbd-d2t06.flac
ba3a95a69bfbb8e0796ab0d4f3839543 *gm1996-09-22-sbd-d2t07.flac
1a0e551e1a63ad8ba468b0984934f927 *gm1996-09-22-sbd-d2t08.flac
056cafde3188cd4cec7cf906ac3f4e4f *gm1996-09-22-sbd-d2t09.flac
b6ed49b949f46140ff6da5aff81d2a69 *gm1996-09-22-sbd-d2t10.flac
76c1bfcd13ac822ed1cdf09c3c39eec6 *gm1996-09-22-sbd-d2t11.flac
9e621731b7bec22d4b36a1b81fabea55 *gm1996-09-22-sbd-d2t12.flac

Comments
Add Comment
Date User Comment