Browse Collections Artists Sources   Search Dates

Add Show    List Management    Help


Gov't Mule 12/10/11
Asheville Civic Center, Asheville, NC
Comments Add Comment    Source Collectors    Add to Collection    Add to Want List    History
Source # 117601 Other Sources
Entered by Albix
Checksums flac.ffp
Disc Counts 1 / 1
Media Size
Date Circulated
Date Added
12/11/2011
12/11/2011
Source Summary flac16; Neumann ak40 > lc3 > km100 (nos) > Lunatec V3 > Edirol R-44 @ 24/48
transfer: SDHC card > PC > wavelab 6.1 > cd wave > traders little helper (flac level 8)
*16bit/44.1khz fileset*
recorded and transferred by Gordon Wilson 
Source Information - Download Text | Download Zip
Gov't Mule
12/10/2011
Warren Haynes 23nd Annual Christmas Jam
Asheville Civic Center
Asheville, NC

source:   Neumann ak40 > lc3 > km100 (nos) > Lunatec V3 > Edirol R-44 @ 24/48
location: FOB DFC, 7' high
transfer: SDHC card > PC > wavelab 6.1 > cd wave > traders little helper (flac level 8)

all editing (fades, Crystal Resampler (high), dither w/ iZotope Ozone 4) done in wavelab 6.1

*16bit/44.1khz fileset*

recorded and transferred by Gordon Wilson

A Team Dirty South Recording

01. Intro
02. Railroad Boy
03. Beautifully Broken
04. Thorazine Shuffle
05. Banks Of The Deep End
06. Low Spark Of High-Heeled Boys *
07. Dear Prudence **
08. Inside Outside Woman Blues
09. When The Music's Over

* w/ Bill Evans & Phil Lesh
** w/ Jimmy Herring

suggested disc split after track 06


shntool 3.0.4
Copyright (C) 2000-2007 Jason Jordan

    length     expanded size    cdr  WAVE problems  fmt   ratio  filename
     2:26.02       25759148 B   ---   --   ---xx   flac  0.4159  mule2011-12-10t01.flac
     6:06.73       64734140 B   ---   --   ---xx   flac  0.4908  mule2011-12-10t02.flac
     7:14.02       76562348 B   ---   --   ---xx   flac  0.5117  mule2011-12-10t03.flac
    13:17.18      140633180 B   ---   --   ---xx   flac  0.5002  mule2011-12-10t04.flac
     7:54.38       83703020 B   ---   --   ---xx   flac  0.4965  mule2011-12-10t05.flac
    20:16.52      214624748 B   ---   --   ---xx   flac  0.4799  mule2011-12-10t06.flac
    11:07.08      117677660 B   ---   --   ---xx   flac  0.4900  mule2011-12-10t07.flac
    11:42.57      123966908 B   ---   --   ---xx   flac  0.4986  mule2011-12-10t08.flac
    16:48.72      177980588 B   ---   --   ---xx   flac  0.4682  mule2011-12-10t09.flac
    96:54.22     1025641740 B                            0.4869  (9 files)
Show Checksums
flac.ffp
mule2011-12-10t01.flac:6c230f40d7211b1896710a952b9c6a16
mule2011-12-10t02.flac:b9c9be9cbfb5923693505544752ab31a
mule2011-12-10t03.flac:96bc71e236a428a4a7439f05327235b4
mule2011-12-10t04.flac:8a03aa098eb5c4ca5df3790a807d476c
mule2011-12-10t05.flac:4d405cf8db3a08c2909fd98e54cbfc84
mule2011-12-10t06.flac:36f7e8a2c0946b253e380389b2f22b0e
mule2011-12-10t07.flac:6e36d37b2ef7c650527a95c18b25ddc3
mule2011-12-10t08.flac:711f7f867c7df48e38ab84ef0b5cd569
mule2011-12-10t09.flac:d8d17efa6033e0c037297f7e06fc3e03

Comments
Add Comment
Other Sources (comments)
flac16;... (0) flac16; Schoeps... (0) flac16; Neumann... (0) flac16; Schoeps... (0) flac16; Schoeps... (0) flac16;... (0) flac16; DPA 4017... (0) flac16; Neumann... (0) flac16; Schoeps... (0)
Date User Comment