Browse Collections Artists Sources   Search Dates

Add Show    List Management    Help


Gov't Mule 12/10/11
Asheville Civic Center, Asheville, NC
Comments Add Comment    Source Collectors    Add to Collection    Add to Want List    History
Source # 117602 Other Sources
Entered by Albix
Checksums flac.ffp
Disc Counts 1 / 2
Media Size
Date Circulated
Date Added
12/11/2011
12/11/2011
Source Summary flac16; Schoeps CCM4V'S(din)>Lunatec V2>Benchmark AD2K> Sound Devices 722 (24/48)
DSP: Sound Devices 722>Sound Forge 9.0>CD Wave>flac(16)
Recorded By: Z-Man
Seeded By: Z-Man 
Source Information - Download Text | Download Zip
Gov't Mule
Warren Haynes Christmas Jam
Asheville Civic Center
Asheville, North Carolina
12/10/2011

Source: Schoeps CCM4V'S(din)>Lunatec V2>Benchmark AD2K>
Sound Devices 722 (24/48)
FOB/DFC/KFC/ZFC/AARP 47' From Stage, 7' High
DSP: Sound Devices 722>Sound Forge 9.0>CD Wave>flac(16)
Recorded By: Z-Man
Seeded By: Z-Man

Disc I

01 Tuning
02 Railroad Boy >
03 Beautifully Broken >
04 Thorazine Shuffle
05 Banks Of The Deep End
06 *#Low Spark Of High-Heeled Boys

Disc II

01 Tuning
02 @Dear Prudence
03 Inside Outside Woman Blues
04 When The Music's Over

* With Phil Lesh On Bass
# With Bill Evans On Saxophone
@ With Jimmy Herring On Guitar


Shntool

    length     expanded size    cdr  WAVE problems  fmt   ratio  filename
     0:47.34        8370812 B   ---   --   ---xx   flac  0.3227  govtmule2011-12-10d01t01.flac
     6:46.71       71785436 B   ---   --   ---xx   flac  0.4317  govtmule2011-12-10d01t02.flac
     7:12.31       76277756 B   ---   --   ---xx   flac  0.4544  govtmule2011-12-10d01t03.flac
    13:14.11      140087516 B   ---   --   ---xx   flac  0.4388  govtmule2011-12-10d01t04.flac
     7:55.19       83834732 B   ---   --   ---xx   flac  0.4331  govtmule2011-12-10d01t05.flac
    18:47.20      198849884 B   ---   --   ---xx   flac  0.4212  govtmule2011-12-10d01t06.flac
     1:26.21       15219836 B   ---   --   ---xx   flac  0.3122  govtmule2011-12-10d02t01.flac
    11:07.27      117722348 B   ---   --   ---xx   flac  0.4207  govtmule2011-12-10d02t02.flac
    11:38.22      123178988 B   ---   --   ---xx   flac  0.4383  govtmule2011-12-10d02t03.flac
    16:41.65      176729324 B   ---   --   ---xx   flac  0.3998  govtmule2011-12-10d02t04.flac
    95:37.21     1012056632 B                            0.4237  (10 files)



Show Checksums
flac.ffp
govtmule2011-12-10d01t01.flac:9c26571be44b4d15aefabc49f2d2de28
govtmule2011-12-10d01t02.flac:750516173e431f0407730a999b4bc3ea
govtmule2011-12-10d01t03.flac:9637e5e6013a276dd6ff772c9575e98c
govtmule2011-12-10d01t04.flac:da5663ddb3f2085bdc4afa75e108e343
govtmule2011-12-10d01t05.flac:cd5e584502050abbd088297ed3197564
govtmule2011-12-10d01t06.flac:6805061bc3dab10b9e34cb95d5ee77cb
govtmule2011-12-10d02t01.flac:6ef1b0fd98328984e34f8960996b10ad
govtmule2011-12-10d02t02.flac:d20eb911afd87f02d1397519e6b7218b
govtmule2011-12-10d02t03.flac:3f397ff11b18eded5385c20ddcab501b
govtmule2011-12-10d02t04.flac:49d15768f18bc16489f75bbaa5d935e2

Comments
Add Comment
Other Sources (comments)
flac16;... (0) flac16; Neumann ak40... (0) flac16; Neumann... (0) flac16; Schoeps... (0) flac16; Schoeps... (0) flac16;... (0) flac16; DPA 4017... (0) flac16; Neumann... (0) flac16; Schoeps... (0)
Date User Comment