Browse Collections Artists Sources   Search Dates

Add Show    List Management    Help


Gov't Mule 12/09/11
Orange Peel, Asheville, NC
Comments Add Comment    Source Collectors    Add to Collection    Add to Want List    History
Source # 117603 Other Sources
Entered by Albix
Checksums flac.ffp
Disc Counts 1 / 1
Media Size
Date Circulated
Date Added
12/10/2011
12/11/2011
Source Summary flac16; Schoeps 4V'S(din)>Sound Devices 722 (24/48)
DSP: Sound Devices 722>Sound Forge 9.0>CD Wave>flac(16)
Recorded By: Manofz
Seeded By: Manofz 
Source Information - Download Text | Download Zip
Gov't Mule
Warren Haynes Christmas Pre-Jam
Orange Peel
Asheville, North Carolina
12/9/2011

Source: Schoeps 4V'S(din)>Sound Devices 722 (24/48)
FOB/DLFC 40' From Stage, 6' High
DSP: Sound Devices 722>Sound Forge 9.0>CD Wave>flac(16)
Recorded By: Manofz
Seeded By: Manofz

Disc I

01 Introduction
02 Trane >
03 Goin' Out West
04 *Come Into My Kitchen
05 #Devil Likes It Slow
06 @^+Dear Mr. Fantasy

* With Bela Fleck On Banjo
# With With Bill Evans On Saxophone
@ With Phil Lesh On Bass
^ With David Hidalgo On Guitar And Vocals
+ With Jeff Chimenti On Keyboards


Shntool

    length     expanded size    cdr  WAVE problems  fmt   ratio  filename
     0:35.65        6326924 B   ---   --   ---xx   flac  0.4228  govtmule2011-12-09d01t01.flac
     9:01.28       95498300 B   ---   --   ---xx   flac  0.5251  govtmule2011-12-09d01t02.flac
     7:16.11       76936316 B   ---   --   ---xx   flac  0.4867  govtmule2011-12-09d01t03.flac
     9:34.05      101265404 B   ---   --   ---xx   flac  0.4427  govtmule2011-12-09d01t04.flac
    15:50.03      167587100 B   ---   --   ---xx   flac  0.4856  govtmule2011-12-09d01t05.flac
    12:22.02      130893548 B   ---   --   ---xx   flac  0.4997  govtmule2011-12-09d01t06.flac
    54:39.39      578507592 B                            0.4873  (6 files)







Show Checksums
flac.ffp
govtmule2011-12-09d01t01.flac:5238878ef74c6b1d8075e2d658568b15
govtmule2011-12-09d01t02.flac:e10a4d997249f71195b62f9c1e7042fe
govtmule2011-12-09d01t03.flac:6940f132ca56ee6822d389c830144496
govtmule2011-12-09d01t04.flac:04aabd6000f2c816646a3d79946275ba
govtmule2011-12-09d01t05.flac:f24a25fa6e2e1f26d4977affae56c086
govtmule2011-12-09d01t06.flac:6ea7fd3422188573b83aa6c193e0e28b

Comments
Add Comment
Date User Comment