Browse Collections Artists Sources   Search Dates

Add Show    List Management    Help


Garcia 11/15/91
Madison Square Garden, New York, NY
Comments Add Comment    Source Collectors    Add to Collection    Add to Want List    History
Source # 117755 Other Sources
Entered by ziko
Checksums jgb1991-11-15.md5 , jgb1991-11-15.ffp
Disc Counts 0 / 0
Media Size Compressed: 2.48 GB (2658326114 bytes)
Date Circulated
Date Added
12/22/2011
12/22/2011
Source Summary 24bit/48kHz file-set: AUD: Sonics DSM-6 mics (hat mounted) > Sony TC-D5M > Maxell MV-90's, recorded from the 10th row center, by Richie Stankiewicz. Transfer: MAC > Nakamichi DR-2 > Edirol FA-66 > Wavelab > CD-Wave > TLH > FLAC 2448 tagged. Transfer by Andrew F. December 2011 
Source Information - Download Text | Download Zip
JERRY GARCIA BAND
Madison Square Garden
New York NY
11-15-1991

24bit/48kHz file-set

s1t01 How Sweet It Is
s1t02 Strugglin' Man
s1t03 He Ain't Give You None
s1t04 Simple Twist of Fate
s1t05 Lay Down Sally
s1t06 Night They Drove Old Dixie Down
s1t07 My Sisters and Brothers
s1t08 Deal

s2t01 The Way You Do the Things You Do
s2t02 Waiting for a Miracle
s2t03 Shining Star
s2t04 Ain't No Bread in the Breadbox
s2t05 Don't Let Go
s2t06 That Lucky Old Sun
s2t07 Bright Side of the Road
s2t08 Encore: What a Wonderful World

AUD: Sonics DSM-6 mics (hat mounted) > Sony TC-D5M > Maxell MV-90's,
recorded from the 10th row center, by Richie Stankiewicz.

Transfer: MAC > Nakamichi DR-2 > Edirol FA-66 > Wavelab > CD-Wave >
TLH > FLAC 2448 tagged. Transfer by Andrew F. December 2011

Notes: Mic cable problem causes some brief left channel drop outs:
How Sweet 0:18 > 0:33 and 5:48 > 5:50; and in Dixie 1:10 > 1:44 and
2:08 > 2:15. There were also several small sub-second left channel
pops during Dixie. All the flaws have been repaired by cross-fading
the undamaged right channel signal onto the left.

7716d521bc13097d01ae43acbf8982ae *jgb1991-11-15s1t01.flac
e2792e17cabc32021e60fbed94d28432 *jgb1991-11-15s1t02.flac
30f2af3f24fdd75ede5ddee2e323e4fa *jgb1991-11-15s1t03.flac
c84380c4b8659075d4d266bbbbf850ac *jgb1991-11-15s1t04.flac
2cebb5ebd8a9c53a25adb9fa7d5cb3b5 *jgb1991-11-15s1t05.flac
7cfd28e2505e71f6c347621de7b0f0bb *jgb1991-11-15s1t06.flac
0c2afd83037e04e9017b9feb10eafda0 *jgb1991-11-15s1t07.flac
18421e0f82501f44525d7b44643491d5 *jgb1991-11-15s1t08.flac
fa528968da580b5caafcf574b54ebcfa *jgb1991-11-15s2t01.flac
548dcb1e89d7d062d28664d1ff8da7cc *jgb1991-11-15s2t02.flac
b845ee82d9545ebcb5be4d5bb055f8bd *jgb1991-11-15s2t03.flac
6b0580a20248c0c92bf4d12f97d4b2e7 *jgb1991-11-15s2t04.flac
a6d3988905bf0282ed26e2f4f1baac61 *jgb1991-11-15s2t05.flac
0e3d6353a649ccfbc189a4a377cfdef7 *jgb1991-11-15s2t06.flac
43106737176f6421cd541a9cc570d2d1 *jgb1991-11-15s2t07.flac
ade6a75f3c91f0c0016a2fe71cb05d04 *jgb1991-11-15s2t08.flac

jgb1991-11-15s1t01.flac:733237c8aeef9b06dc0f1f4e908a760f
jgb1991-11-15s1t02.flac:2eb8e6f79cf4302380881453186b1526
jgb1991-11-15s1t03.flac:2c8902a4b241331b4bd09c6058476974
jgb1991-11-15s1t04.flac:2e5642d29eae92310ee49b235dd927d6
jgb1991-11-15s1t05.flac:d39dcd38b1460987ac61ef8bd75e7ab1
jgb1991-11-15s1t06.flac:5f39453d047a0e66abad19ffa6bfcb75
jgb1991-11-15s1t07.flac:09b192eb679cf8464ffc10d3ee02f8b8
jgb1991-11-15s1t08.flac:7ca217c1e1af84b3c109dfbd373e0f37
jgb1991-11-15s2t01.flac:f949dd2e07d5542303a4045336723708
jgb1991-11-15s2t02.flac:cb3f41f2145bf4f7636ef2500d89d0c2
jgb1991-11-15s2t03.flac:2921fb16920b11366d2234a02b48a6e7
jgb1991-11-15s2t04.flac:df85ecc04a27afe134dfba0fbac05ce8
jgb1991-11-15s2t05.flac:a7e49f808f4fdccdc982e4684a927cc8
jgb1991-11-15s2t06.flac:1affd54cf077082da5a56e9c327bd425
jgb1991-11-15s2t07.flac:3d0f821b44345582f79732c9430cdcdb
jgb1991-11-15s2t08.flac:d9ebe008fb5764698e9a521d86b36e64

    length     expanded size    cdr  WAVE problems  fmt   ratio  filename
     8:28.333     146400044 B   cxx   --   ---xx   flac  0.7305  jgb1991-11-15s1t01.flac
     7:08.693     123463724 B   cxx   --   ---xx   flac  0.7482  jgb1991-11-15s1t02.flac
     8:15.933     142828844 B   cxx   --   ---xx   flac  0.7516  jgb1991-11-15s1t03.flac
    13:22.320     231068204 B   cxx   --   ---xx   flac  0.7091  jgb1991-11-15s1t04.flac
     9:50.867     170169644 B   cxx   --   ---xx   flac  0.7372  jgb1991-11-15s1t05.flac
     9:46.413     168887084 B   cxx   --   ---xx   flac  0.7104  jgb1991-11-15s1t06.flac
     4:30.547      77917484 B   cxx   --   ---xx   flac  0.7309  jgb1991-11-15s1t07.flac
     9:01.092     155834492 B   cxx   --   ---xx   flac  0.7586  jgb1991-11-15s1t08.flac
    14:26.427     249530924 B   cxx   --   ---xx   flac  0.7369  jgb1991-11-15s2t01.flac
     7:00.627     121140524 B   cxx   --   ---xx   flac  0.7359  jgb1991-11-15s2t02.flac
    11:05.200     191577644 B   cxx   --   ---xx   flac  0.7217  jgb1991-11-15s2t03.flac
     9:11.240     158757164 B   cxx   --   ---xx   flac  0.7522  jgb1991-11-15s2t04.flac
    15:34.080     269015084 B   cxx   --   ---xx   flac  0.7490  jgb1991-11-15s2t05.flac
    12:26.520     214997804 B   cxx   --   ---xx   flac  0.7121  jgb1991-11-15s2t06.flac
     5:49.960     100788524 B   cxx   --   ---xx   flac  0.7376  jgb1991-11-15s2t07.flac
     7:52.045     135948926 B   cxx   --   ---xx   flac  0.6999  jgb1991-11-15s2t08.flac
   153:50.297    2658326114 B                            0.7320  (16 files)

No errors occured.
Show Checksums
jgb1991-11-15.md5
7716d521bc13097d01ae43acbf8982ae *jgb1991-11-15s1t01.flac
e2792e17cabc32021e60fbed94d28432 *jgb1991-11-15s1t02.flac
30f2af3f24fdd75ede5ddee2e323e4fa *jgb1991-11-15s1t03.flac
c84380c4b8659075d4d266bbbbf850ac *jgb1991-11-15s1t04.flac
2cebb5ebd8a9c53a25adb9fa7d5cb3b5 *jgb1991-11-15s1t05.flac
7cfd28e2505e71f6c347621de7b0f0bb *jgb1991-11-15s1t06.flac
0c2afd83037e04e9017b9feb10eafda0 *jgb1991-11-15s1t07.flac
18421e0f82501f44525d7b44643491d5 *jgb1991-11-15s1t08.flac
fa528968da580b5caafcf574b54ebcfa *jgb1991-11-15s2t01.flac
548dcb1e89d7d062d28664d1ff8da7cc *jgb1991-11-15s2t02.flac
b845ee82d9545ebcb5be4d5bb055f8bd *jgb1991-11-15s2t03.flac
6b0580a20248c0c92bf4d12f97d4b2e7 *jgb1991-11-15s2t04.flac
a6d3988905bf0282ed26e2f4f1baac61 *jgb1991-11-15s2t05.flac
0e3d6353a649ccfbc189a4a377cfdef7 *jgb1991-11-15s2t06.flac
43106737176f6421cd541a9cc570d2d1 *jgb1991-11-15s2t07.flac
ade6a75f3c91f0c0016a2fe71cb05d04 *jgb1991-11-15s2t08.flac
jgb1991-11-15.ffp
jgb1991-11-15s1t01.flac:733237c8aeef9b06dc0f1f4e908a760f
jgb1991-11-15s1t02.flac:2eb8e6f79cf4302380881453186b1526
jgb1991-11-15s1t03.flac:2c8902a4b241331b4bd09c6058476974
jgb1991-11-15s1t04.flac:2e5642d29eae92310ee49b235dd927d6
jgb1991-11-15s1t05.flac:d39dcd38b1460987ac61ef8bd75e7ab1
jgb1991-11-15s1t06.flac:5f39453d047a0e66abad19ffa6bfcb75
jgb1991-11-15s1t07.flac:09b192eb679cf8464ffc10d3ee02f8b8
jgb1991-11-15s1t08.flac:7ca217c1e1af84b3c109dfbd373e0f37
jgb1991-11-15s2t01.flac:f949dd2e07d5542303a4045336723708
jgb1991-11-15s2t02.flac:cb3f41f2145bf4f7636ef2500d89d0c2
jgb1991-11-15s2t03.flac:2921fb16920b11366d2234a02b48a6e7
jgb1991-11-15s2t04.flac:df85ecc04a27afe134dfba0fbac05ce8
jgb1991-11-15s2t05.flac:a7e49f808f4fdccdc982e4684a927cc8
jgb1991-11-15s2t06.flac:1affd54cf077082da5a56e9c327bd425
jgb1991-11-15s2t07.flac:3d0f821b44345582f79732c9430cdcdb
jgb1991-11-15s2t08.flac:d9ebe008fb5764698e9a521d86b36e64

Comments
Add Comment
Other Sources (comments)
Jerry Garcia Band: MAD > CD... (0) Source:... (0) 16bit/44.1kHz file-set:... (0)
Date User Comment