Browse Collections Artists Sources   Search Dates

Add Show    List Management    Help


Garcia 11/15/91
Madison Square Garden, New York, NY
Comments Add Comment    Source Collectors    Add to Collection    Add to Want List    History
Source # 117756 Other Sources
Entered by ziko
Checksums md5 , ffp
Disc Counts 2 / 3
Media Size Compressed: 955.18 MB (1001579652 bytes)
Date Circulated
Date Added
12/22/2011
12/22/2011
Source Summary 16bit/44.1kHz file-set: AUD: Sonics DSM-6 mics (hat mounted) > Sony TC-D5M > Maxell MV-90's, recorded from the 10th row center, by Richie Stankiewicz. Transfer: MAC > Nakamichi DR-2 > Edirol FA-66 > Wavelab > R8Brain > CD-Wave > TLH > FLAC 1644 tagged. Transfer by Andrew F. December 2011 
Source Information - Download Text | Download Zip
JERRY GARCIA BAND
Madison Square Garden
New York NY
11-15-1991

16bit/44.1kHz file-set

s1t01 How Sweet It Is
s1t02 Strugglin' Man
s1t03 He Ain't Give You None
s1t04 Simple Twist of Fate
s1t05 Lay Down Sally
s1t06 Night They Drove Old Dixie Down
s1t07 My Sisters and Brothers
s1t08 Deal

s2t01 The Way You Do the Things You Do
s2t02 Waiting for a Miracle
s2t03 Shining Star
s2t04 Ain't No Bread in the Breadbox
s2t05 Don't Let Go
s2t06 That Lucky Old Sun
s2t07 Bright Side of the Road
s2t08 Encore: What a Wonderful World

AUD: Sonics DSM-6 mics (hat mounted) > Sony TC-D5M > Maxell MV-90's,
recorded from the 10th row center, by Richie Stankiewicz.

Transfer: MAC > Nakamichi DR-2 > Edirol FA-66 > Wavelab > R8Brain >
CD-Wave > TLH > FLAC 1644 tagged. Transfer by Andrew F. December 2011

Notes: Mic cable problem causes some brief left channel drop outs:
How Sweet 0:18 > 0:33 and 5:48 > 5:50; and in Dixie 1:10 > 1:44 and
2:08 > 2:15. There were also several small sub-second left channel
pops during Dixie. All the flaws have been repaired by cross-fading
the undamaged right channel signal onto the left.

2-Disc CDR burning option: place Encore on end of First Set disc.

979467f0619f0cc087ca1eaf8da97451 *jgb1991-11-15s1t01.flac
ae27a8a1f5a5f9a708ae626c2e6330fc *jgb1991-11-15s1t02.flac
e1e6c6a295db1b71b4665bab3ac41d27 *jgb1991-11-15s1t03.flac
aed53b1f381cd316c670db2434fbda61 *jgb1991-11-15s1t04.flac
9e1bde889eda5a533ce7b94d5c1117bd *jgb1991-11-15s1t05.flac
42aebb832e732dadb502b5b43b80c6a5 *jgb1991-11-15s1t06.flac
3ff5a32312d37006a306910abe5e70cc *jgb1991-11-15s1t07.flac
8f20ab7214410859576e1be1b480c054 *jgb1991-11-15s1t08.flac
71e67621da697f2e40b5347f23995743 *jgb1991-11-15s2t01.flac
45f0171c4380a9a9fe71f38d00e65990 *jgb1991-11-15s2t02.flac
83415ddb81c4608e2f9f00a842bde0ce *jgb1991-11-15s2t03.flac
f9291b07b3c2754c13d0214160503b71 *jgb1991-11-15s2t04.flac
958aa79458ccdf3e0f54a340b948f5eb *jgb1991-11-15s2t05.flac
0f9ca81090be0a6780acfe7e97318588 *jgb1991-11-15s2t06.flac
aa44766d8213eaf79f818a2542b952a0 *jgb1991-11-15s2t07.flac
6e80b5dba48a6b3d733e9a9265faa76f *jgb1991-11-15s2t08.flac

jgb1991-11-15s1t01.flac:9c30f1a8b64d5cd271675a614e192c08
jgb1991-11-15s1t02.flac:f19e3e5dfd44a2f2e90e50b4c50d27c2
jgb1991-11-15s1t03.flac:e687f2f69ac7b1a4e77d0fb077a8a64f
jgb1991-11-15s1t04.flac:d9aeec16922cac58f477913735c978aa
jgb1991-11-15s1t05.flac:4f397d964084474883d65c7e902bdf0c
jgb1991-11-15s1t06.flac:d5d5efd99bd5c45a10aebb4cc5e8c7ca
jgb1991-11-15s1t07.flac:2a6b61b8eb74e6e6950ae9f1157ece6e
jgb1991-11-15s1t08.flac:4cf2c3c4fbb3cc41631760c4ef330004
jgb1991-11-15s2t01.flac:919a2654c0a413f3f591ef63a16db10b
jgb1991-11-15s2t02.flac:15958492318f759647ecc71f40599154
jgb1991-11-15s2t03.flac:774d9ea71b1d5dc0835ef5a6ae25b33b
jgb1991-11-15s2t04.flac:f80f8e3a6e96b8a84c25a8c67494ad36
jgb1991-11-15s2t05.flac:55eba24774ef9c0e34a1a5ec9f8cc438
jgb1991-11-15s2t06.flac:1045b0dffee3bf6b7f5fb58a13723eaa
jgb1991-11-15s2t07.flac:131bef94124545bb424231c40e87b65c
jgb1991-11-15s2t08.flac:570271c3079f0d72d5b82d0461184e5b

    length     expanded size    cdr  WAVE problems  fmt   ratio  filename
     8:28.25       89670044 B   ---   --   ---xx   flac  0.6210  jgb1991-11-15s1t01.flac
     7:08.52       75621548 B   ---   --   ---xx   flac  0.6389  jgb1991-11-15s1t02.flac
     8:15.71       87485036 B   ---   --   ---xx   flac  0.6444  jgb1991-11-15s1t03.flac
    13:22.24      141529292 B   ---   --   ---xx   flac  0.5762  jgb1991-11-15s1t04.flac
     9:50.63      104224220 B   ---   --   ---xx   flac  0.6208  jgb1991-11-15s1t05.flac
     9:46.32      103445708 B   ---   --   ---xx   flac  0.6007  jgb1991-11-15s1t06.flac
     4:30.42       47726828 B   ---   --   ---xx   flac  0.6136  jgb1991-11-15s1t07.flac
     9:01.06       95446556 B   ---   --   ---xx   flac  0.6568  jgb1991-11-15s1t08.flac
    14:26.32      152837708 B   ---   --   ---xx   flac  0.6219  jgb1991-11-15s2t01.flac
     7:00.47       74198588 B   ---   --   ---xx   flac  0.6199  jgb1991-11-15s2t02.flac
    11:05.16      117343676 B   ---   --   ---xx   flac  0.5971  jgb1991-11-15s2t03.flac
     9:11.15       97231724 B   ---   --   ---xx   flac  0.6465  jgb1991-11-15s2t04.flac
    15:34.09      164778812 B   ---   --   ---xx   flac  0.6393  jgb1991-11-15s2t05.flac
    12:26.38      131683820 B   ---   --   ---xx   flac  0.5799  jgb1991-11-15s2t06.flac
     5:49.73       61735340 B   ---   --   ---xx   flac  0.6213  jgb1991-11-15s2t07.flac
     7:52.03       83267900 B   ---   --   ---xx   flac  0.5611  jgb1991-11-15s2t08.flac
   153:50.23     1628226800 B                            0.6151  (16 files)

No errors occured.
Show Checksums
md5
979467f0619f0cc087ca1eaf8da97451 *jgb1991-11-15s1t01.flac
ae27a8a1f5a5f9a708ae626c2e6330fc *jgb1991-11-15s1t02.flac
e1e6c6a295db1b71b4665bab3ac41d27 *jgb1991-11-15s1t03.flac
aed53b1f381cd316c670db2434fbda61 *jgb1991-11-15s1t04.flac
9e1bde889eda5a533ce7b94d5c1117bd *jgb1991-11-15s1t05.flac
42aebb832e732dadb502b5b43b80c6a5 *jgb1991-11-15s1t06.flac
3ff5a32312d37006a306910abe5e70cc *jgb1991-11-15s1t07.flac
8f20ab7214410859576e1be1b480c054 *jgb1991-11-15s1t08.flac
71e67621da697f2e40b5347f23995743 *jgb1991-11-15s2t01.flac
45f0171c4380a9a9fe71f38d00e65990 *jgb1991-11-15s2t02.flac
83415ddb81c4608e2f9f00a842bde0ce *jgb1991-11-15s2t03.flac
f9291b07b3c2754c13d0214160503b71 *jgb1991-11-15s2t04.flac
958aa79458ccdf3e0f54a340b948f5eb *jgb1991-11-15s2t05.flac
0f9ca81090be0a6780acfe7e97318588 *jgb1991-11-15s2t06.flac
aa44766d8213eaf79f818a2542b952a0 *jgb1991-11-15s2t07.flac
6e80b5dba48a6b3d733e9a9265faa76f *jgb1991-11-15s2t08.flac
ffp
jgb1991-11-15s1t01.flac:9c30f1a8b64d5cd271675a614e192c08
jgb1991-11-15s1t02.flac:f19e3e5dfd44a2f2e90e50b4c50d27c2
jgb1991-11-15s1t03.flac:e687f2f69ac7b1a4e77d0fb077a8a64f
jgb1991-11-15s1t04.flac:d9aeec16922cac58f477913735c978aa
jgb1991-11-15s1t05.flac:4f397d964084474883d65c7e902bdf0c
jgb1991-11-15s1t06.flac:d5d5efd99bd5c45a10aebb4cc5e8c7ca
jgb1991-11-15s1t07.flac:2a6b61b8eb74e6e6950ae9f1157ece6e
jgb1991-11-15s1t08.flac:4cf2c3c4fbb3cc41631760c4ef330004
jgb1991-11-15s2t01.flac:919a2654c0a413f3f591ef63a16db10b
jgb1991-11-15s2t02.flac:15958492318f759647ecc71f40599154
jgb1991-11-15s2t03.flac:774d9ea71b1d5dc0835ef5a6ae25b33b
jgb1991-11-15s2t04.flac:f80f8e3a6e96b8a84c25a8c67494ad36
jgb1991-11-15s2t05.flac:55eba24774ef9c0e34a1a5ec9f8cc438
jgb1991-11-15s2t06.flac:1045b0dffee3bf6b7f5fb58a13723eaa
jgb1991-11-15s2t07.flac:131bef94124545bb424231c40e87b65c
jgb1991-11-15s2t08.flac:570271c3079f0d72d5b82d0461184e5b

Comments
Add Comment
Other Sources (comments)
Jerry Garcia Band: MAD > CD... (0) Source:... (0) 24bit/48kHz file-set:... (0)
Date User Comment