Browse Collections Artists Sources   Search Dates

Add Show    List Management    Help


Grateful Dead 09/04/79
Madison Square Garden, New York, NY
Comments Add Comment    Source Collectors    Add to Collection    Add to Want List    History
Source # 117776 Other Sources
Entered by Matt Vernon
Checksums ffp , flac-md5
Disc Counts 0 / 0
Media Size Compressed: 1.71 GB (1841052488 bytes)
Date Circulated
Date Added
12/24/2011
12/24/2011
Source Summary flac16; Nakamichi 700s > Sony TC-158, 14th row recording by Barry Glassberg. Transferred MAC > CDR by Jim Wise (c2000) CDR > EAC > TLH > FLAC 1644 tagged (Dec 2011) 
  Archive
Source Information - Download Text | Download Zip
GRATEFUL DEAD
Madison Square Garden
New York NY
09-04-1979

Disc One - Set One (76:11)

01 tuning
02 Jack Straw
03 Sugaree
04 Me & My Uncle >
05 Big River
06 Candyman
07 Minglewood Blues
08 Tennessee Jed
09 Lost Sailor >
10 Saint of Circumstance >
11 Deal

Disc Two - Set Two (57:36)

01 tuning
02 China Cat Sunflower >
03 I Know You Rider
04 Looks Like Rain
05 He's Gone >
06 Jam >
07 Drums/

Disc Three - Set Two Continued (40:09)

01 Space >
02 Wharf Rat >
03 Around & Around
04 Encore: Shakedown Street

Nakamichi 700s > Sony TC-158, 14th row recording by Barry Glassberg.
Transferred MAC > CDR by Jim Wise (c2000)
CDR > EAC > TLH > FLAC 1644 tagged (Dec 2011)



Note: The source currently on archive ID-8379 has an entirely
different
first set which does not match. More importantly, this
version does not
have the very annoying guy blowing the whistle all
during the first set.
The second set matches ID-8379, but this
transfer sounds somewhat better,
with more gain. Thanks to Jim for these discs!



    length     expanded size    cdr  WAVE problems  fmt   ratio  filename
     1:59.38       21081020 B   ---   --   ---xx   flac  0.5714  gd1979-09-04d1t01.flac
     7:00.64       74238572 B   ---   --   ---xx   flac  0.5726  gd1979-09-04d1t02.flac
    14:29.00      153291644 B   ---   --   ---xx   flac  0.5582  gd1979-09-04d1t03.flac
     2:56.64       31196972 B   ---   --   ---xx   flac  0.5852  gd1979-09-04d1t04.flac
     6:59.22       73963388 B   ---   --   ---xx   flac  0.5706  gd1979-09-04d1t05.flac
     7:27.58       78987260 B   ---   --   ---xx   flac  0.5387  gd1979-09-04d1t06.flac
     7:33.00       79909244 B   ---   --   ---xx   flac  0.5635  gd1979-09-04d1t07.flac
     9:25.01       99668396 B   ---   --   ---xx   flac  0.5499  gd1979-09-04d1t08.flac
     6:29.13       68650220 B   ---   --   ---xx   flac  0.5212  gd1979-09-04d1t09.flac
     6:10.14       65300972 B   ---   --   ---xx   flac  0.5725  gd1979-09-04d1t10.flac
     5:40.34       60056012 B   ---   --   ---xx   flac  0.5644  gd1979-09-04d1t11.flac
     1:09.36       12256316 B   ---   --   ---xx   flac  0.5002  gd1979-09-04d2t01.flac
     8:13.13       86995820 B   ---   --   ---xx   flac  0.5602  gd1979-09-04d2t02.flac
     7:11.12       76056668 B   ---   --   ---xx   flac  0.5872  gd1979-09-04d2t03.flac
     8:50.48       93604940 B   ---   --   ---xx   flac  0.5357  gd1979-09-04d2t04.flac
    10:17.24      108895292 B   ---   --   ---xx   flac  0.5477  gd1979-09-04d2t05.flac
     9:35.71      101597036 B   ---   --   ---xx   flac  0.5849  gd1979-09-04d2t06.flac
    12:18.39      130274972 B   ---   --   ---xx   flac  0.5403  gd1979-09-04d2t07.flac
     8:18.37       87934268 B   ---   --   ---xx   flac  0.5040  gd1979-09-04d3t01.flac
    10:58.34      116151212 B   ---   --   ---xx   flac  0.5651  gd1979-09-04d3t02.flac
     8:53.19       94065932 B   ---   --   ---xx   flac  0.5927  gd1979-09-04d3t03.flac
    11:59.19      126876332 B   ---   --   ---xx   flac  0.5909  gd1979-09-04d3t04.flac
   173:56.60     1841052488 B                            0.5594  (22 files)

No errors occured.
Show Checksums
ffp
gd1979-09-04d1t01.flac:de4fe4365eb9c6f97f3936fc0ad9f651
gd1979-09-04d1t02.flac:2fe016477e9af7db80990b4f7a7aa9c0
gd1979-09-04d1t03.flac:5a08ce6be93d927924394d4894d78e1c
gd1979-09-04d1t04.flac:e1dc9b9b62138f8bde200ee18871a856
gd1979-09-04d1t05.flac:8725dfd8b2eac5e90d979c4e734587e2
gd1979-09-04d1t06.flac:c8c1d5a95f6a8c8c14d37f390e05f1ed
gd1979-09-04d1t07.flac:d7c48a9b4ab586b91a7991d701ca47f3
gd1979-09-04d1t08.flac:5f162956de666545651fcb49e25e6ca6
gd1979-09-04d1t09.flac:b5ea0d477433fac87eabf9fabd4eb128
gd1979-09-04d1t10.flac:2571891b8a290c2c22820b5fa87bf0dc
gd1979-09-04d1t11.flac:78cc7188dc4a937e8ee4ee656395b064
gd1979-09-04d2t01.flac:5e5a98caf750ba9663f73fa9929a4fba
gd1979-09-04d2t02.flac:5482c60ddf00f16869917aa8ffb4da7f
gd1979-09-04d2t03.flac:47a9e44dc47df556cd17f38d9bff4b9d
gd1979-09-04d2t04.flac:36cf9211a0037f4f76f52541a9fecfa2
gd1979-09-04d2t05.flac:27176552b356b91f806dd1cf9b4c4704
gd1979-09-04d2t06.flac:671e85dfcc43394bb6c81941ea10eb72
gd1979-09-04d2t07.flac:f3ca902bc0f08ee78eab7c25c17671c1
gd1979-09-04d3t01.flac:4aea1fe321f99a29c7fa079a5bf01c46
gd1979-09-04d3t02.flac:16bcc307c37a0f2e39d32d5449e39600
gd1979-09-04d3t03.flac:b7e2e17f647457c4ca0282f949e10964
gd1979-09-04d3t04.flac:15fb51bb6aeac3dbacb2f45ca70f9e52
flac-md5
2df7b7166676ec48dabc89f3490e37fe *gd1979-09-04d1t01.flac
bc8e02f4fc27246610240199388b0f0a *gd1979-09-04d1t02.flac
050a192242cda743b20f0838d72f22c6 *gd1979-09-04d1t03.flac
3361fa61ff65bdd418f0486e5eff5662 *gd1979-09-04d1t04.flac
4d7eba0b4f714571f0ec0b1e214153c7 *gd1979-09-04d1t05.flac
45da668aee6bee4b76e717ff8fd14e94 *gd1979-09-04d1t06.flac
d38b6cfd3a75fc09b88eaed3ac50a4b8 *gd1979-09-04d1t07.flac
223617ad78e4ba54711b277f829c1809 *gd1979-09-04d1t08.flac
cda76d5c6b21abeee0520f8ff00c6d71 *gd1979-09-04d1t09.flac
f080bb9c42a18caf12b2d23a8ff95c91 *gd1979-09-04d1t10.flac
6d1aa165ade08d692bea2f41b3600ce0 *gd1979-09-04d1t11.flac
630ca5592302c1048d96bf0f43ebea1b *gd1979-09-04d2t01.flac
9ff478aeee6ed388b12ba04672eaaec9 *gd1979-09-04d2t02.flac
1d286d6fb992562fa4bb5654b279b5e6 *gd1979-09-04d2t03.flac
9cf1c8387bf3a4576a6637baabbbc26b *gd1979-09-04d2t04.flac
5616aa415d37b6137ca7909577c4403c *gd1979-09-04d2t05.flac
af50a7fa65fa6c0a6df8deb3c6662f0b *gd1979-09-04d2t06.flac
d9ae07bd0538dc013f5d66de92f8d874 *gd1979-09-04d2t07.flac
81f8d01d4c1403b9ce97b0b26a8518f4 *gd1979-09-04d3t01.flac
860fba895f48cc667dc4ced5397875f9 *gd1979-09-04d3t02.flac
c49a028688083840615ab3db597d448c *gd1979-09-04d3t03.flac
3330a722a1b228cc5ff43c80adaacc92 *gd1979-09-04d3t04.flac

Comments
Add Comment
Other Sources (comments)
Recording by Barry... (0) Sources: Primary Source:... (0) flac16; Recording... (0) flac24; Set 1... (0)
Date User Comment