Browse Collections Artists Sources   Search Dates

Add Show    List Management    Help


Gov't Mule 09/30/99
Roseland Ballroom, New York, NY
Comments Add Comment    Source Collectors    Add to Collection    Add to Want List    History
Source # 117796 Other Sources
Entered by Albix
Checksums flac.ffp
Disc Counts 1 / 2
Media Size Compressed: 1.16 GB (1248381284 bytes)
Date Circulated
Date Added
12/25/2011
12/25/2011
Source Summary flac16; Neumann KM184>Oade 248>Tascam DAP1 (16/48)
OTS/BOB/DFC
DSP: DAP1>Sound Devices 722>Sound Forge 9.0>CD Wave>flac(16)
Recorded By: Mike S. And Z-Man
Seeded By: Z-Man 
Source Information - Download Text | Download Zip
Gov't Mule
Roseland Ballroom
New York City, New York
9/30/99

Source: Neumann KM184>Oade 248>Tascam DAP1 (16/48)
OTS/BOB/DFC
DSP: DAP1>Sound Devices 722>Sound Forge 9.0>CD Wave>flac(16)
Recorded By: Mike S. And Z-Man
Seeded By: Z-Man

Disc I

01 Hammer And Nails
02 Mule >
03 Who Do You Love >
04 Mule
05 Lay Your Burden Down
06 Bad Little Doggie >
07 How Many More Years >
08 Smokestack Lightnin'
09 No Need To Suffer >
10 Monkey Hill >
11 She's So Heavy Jam >
12 Painted Silver Light


Disc II

01 Creep
02 *Low Spark Of High-Heeled Boys >
03 *Soulshine
04 *Falling Down >
05 *Sad And Deep As you
Encore:
06 Thanks/Banter On New CD
07 *Life Before Insanity

* With Danny Louis On Keyboards


Shntool

    length     expanded size    cdr  WAVE problems  fmt   ratio  filename
     6:02.06       63870956 B   ---   --   ---xx   flac  0.4279  govtmule1999-09-30d01t01.flac
     5:28.49       57974492 B   ---   --   ---xx   flac  0.5359  govtmule1999-09-30d01t02.flac
     5:05.64       53952572 B   ---   --   ---xx   flac  0.5338  govtmule1999-09-30d01t03.flac
     2:05.45       22155884 B   ---   --   ---xx   flac  0.5032  govtmule1999-09-30d01t04.flac
     5:17.42       56017628 B   ---   --   ---xx   flac  0.5397  govtmule1999-09-30d01t05.flac
     3:53.46       41209436 B   ---   --   ---xx   flac  0.5340  govtmule1999-09-30d01t06.flac
     6:33.55       69454604 B   ---   --   ---xx   flac  0.5187  govtmule1999-09-30d01t07.flac
     2:39.07       28064108 B   ---   --   ---xx   flac  0.4667  govtmule1999-09-30d01t08.flac
     8:58.53       95027900 B   ---   --   ---xx   flac  0.5117  govtmule1999-09-30d01t09.flac
     4:39.33       49293260 B   ---   --   ---xx   flac  0.5687  govtmule1999-09-30d01t10.flac
     1:23.11       14667116 B   ---   --   ---xx   flac  0.5587  govtmule1999-09-30d01t11.flac
     7:24.57       78455708 B   ---   --   ---xx   flac  0.5293  govtmule1999-09-30d01t12.flac
     6:46.40       71712524 B   ---   --   ---xx   flac  0.4788  govtmule1999-09-30d02t01.flac
    14:41.60      155549564 B   ---   --   ---xx   flac  0.5336  govtmule1999-09-30d02t02.flac
     8:21.14       88409372 B   ---   --   ---xx   flac  0.5084  govtmule1999-09-30d02t03.flac
     9:05.38       96227420 B   ---   --   ---xx   flac  0.4799  govtmule1999-09-30d02t04.flac
    11:24.60      120798764 B   ---   --   ---xx   flac  0.4558  govtmule1999-09-30d02t05.flac
     1:24.35       14899964 B   ---   --   ---xx   flac  0.4379  govtmule1999-09-30d02t06.flac
     6:40.34       70640012 B   ---   --   ---xx   flac  0.5093  govtmule1999-09-30d02t07.flac
   117:56.74     1248381284 B                            0.5064  (19 files)
Show Checksums
flac.ffp
govtmule1999-09-30d01t01.flac:7decfd45b901237589a44d8545bd32c3
govtmule1999-09-30d01t02.flac:6ebb24b3c46eadbfb681f49dc2ad012a
govtmule1999-09-30d01t03.flac:bddcef06680960cec74987fe21894e6f
govtmule1999-09-30d01t04.flac:4f2e5cc2c0af4af9d572219dec6075c4
govtmule1999-09-30d01t05.flac:759613607f55cd7d40963b278dbc44e8
govtmule1999-09-30d01t06.flac:6fce98b0053c9ee451d9cceed14238fc
govtmule1999-09-30d01t07.flac:4c599104f69f8d2cbe05bcd959e94981
govtmule1999-09-30d01t08.flac:282545436a0081786675471b55a8ed68
govtmule1999-09-30d01t09.flac:57c7f113e238f02f93a85e7fa8a00dda
govtmule1999-09-30d01t10.flac:46adf8e2014b784ca1d5080e144ebfd3
govtmule1999-09-30d01t11.flac:0523cb00943ffbf4c26effb2762d0360
govtmule1999-09-30d01t12.flac:d42e2585cd7fe950ac77831291cc49e0
govtmule1999-09-30d02t01.flac:f57ef99cb23d5342db7984acbc5f452d
govtmule1999-09-30d02t02.flac:36bd86a7933adba059497403b7c3e8d5
govtmule1999-09-30d02t03.flac:be467653dfe7ec4ab4e97eb54e4702e1
govtmule1999-09-30d02t04.flac:ab2533d17c7a0bdc10bf416d722de9d4
govtmule1999-09-30d02t05.flac:aa8afc6c43daf89d11c888637f7332db
govtmule1999-09-30d02t06.flac:ec05a65f208af91ecaa4fdf4d9a66c5e
govtmule1999-09-30d02t07.flac:5153a2990ecad1cc17ff1ba8557dede3

Comments
Add Comment
Other Sources (comments)
akg 480's(ck61 caps)>oade... (0)
Date User Comment