Browse Collections Artists Sources   Search Dates

Add Show    List Management    Help


Phish 12/31/11
Madison Square Garden, New York, NY
Comments Add Comment    Source Collectors    Add to Collection    Add to Want List    History
Source # 117854 Other Sources
Entered by Jason Sobel
Checksums 16bit-FFP
Disc Counts 0 / 0
Media Size Compressed: 1.03 GB (1109924325 bytes)
Date Circulated
Date Added
01/01/2012
01/01/2012
Source Summary flac16; Schoeps CCM4V'S > Lunatec V2 > Benchmark AD2K > Sound Devices 722 (24/48); Sound Devices 722 > Sound Forge 9.0 > CD Wave > flac(16); Taped & Transferred by Z-Man 
Source Information - Download Text | Download Zip
Phish
Madison Square Garden
New York City, New York
12/31/2011

Source: Schoeps CCM4V'S(din)>Lunatec V2>Benchmark AD2K>
Sound Devices 722 (24/48)
OTS/BOB/DFC/KFC/ZFC/AARP Section 2, Row 12, Between Seats 6 & 7, 8' High
DSP: Sound Devices 722>Sound Forge 9.0>CD Wave>flac(16)
Recorded By: Z-Man
Seeded By: Z-Man

Disc I 1st Set

01 AC/DC BAg >
02 Wolfman's Brother
03 Scent Of A Mule
04 Stealing Time From The Faulty Plan
05 Lawn Boy
06 Gotta Jibboo
07 Farmhouse
08 Pebbles And Marbles
09 Ocelot >
10 Fluffhead >
11 Fluffhead's Travels >
12 The Chase >
13 Bundle Of Joy >
14 Fluffhead

Disc II 2nd Set

01 Party Time
02 Light >
03 Golden Age >
04 Theme From The Bottom
05 Heavy Things >
06 Ghost >
07 Sneakin' Sally Through The Alley >
08 46 Days >
09 Suzy Greenberg

Disc III 3rd Set

01 Cavern
02 Steam >
03 Countdown/Auld Lang Syne >
04 Down With Disease
05 The Wedge
06 Alaska
07 Wading In The Velvet Sea
08 First Tube
Encore:
09 Slave To The Traffic Light

Flac Fingerprint

phish2011-12-31d01t01.flac:2d9443eb258fa551d0a532726691de6e
phish2011-12-31d01t02.flac:8a56348b2fdf59295f0d8ccb94ef5724
phish2011-12-31d01t03.flac:bb14c550a3521ae02732e0439e57663d
phish2011-12-31d01t04.flac:0c14198cd38c39f18939217b3d357752
phish2011-12-31d01t05.flac:c11368f8105d57d42acaa221dcf7538d
phish2011-12-31d01t06.flac:17be6e4b0c5375acf3c4ecdd747e1e75
phish2011-12-31d01t07.flac:8e241d696e73a86e5a24aa1e3cad8b93
phish2011-12-31d01t08.flac:9332960274dad93efbd66a29e0499ef2
phish2011-12-31d01t09.flac:2251a71ecc943a8d54c6a0e9b86d4c0f
phish2011-12-31d01t10.flac:76a1153654fa7d7736a6b7fec8b40395
phish2011-12-31d01t11.flac:13654ba563a2f68ae636b2bc057f57b0
phish2011-12-31d01t12.flac:4cbd7d18549a165b92b196eed4af7a73
phish2011-12-31d01t13.flac:68ea2b3ea6e40fa9706feb3186dc1937
phish2011-12-31d01t14.flac:304f2e80ab083697b3ba4de681eb94af
phish2011-12-31d02t01.flac:8d38a7717b6332c6533a9fa3c759f6a5
phish2011-12-31d02t02.flac:d9f8c024c27856f40bdf7cdf1a61b1ea
phish2011-12-31d02t03.flac:1f9a3266089f188257c349db049ddcee
phish2011-12-31d02t04.flac:adb9585e35da1b37f5a65ace1c8155b4
phish2011-12-31d02t05.flac:3546b7fba8398f6720b985fe2733166d
phish2011-12-31d02t06.flac:fe94370a16908511cce1dc3c0b11c18f
phish2011-12-31d02t07.flac:efccae9c28f511aec08219260f05d38b
phish2011-12-31d02t08.flac:ac923e41b4d9c446be134fab8e2539b0
phish2011-12-31d02t09.flac:777968bfeea3c6cbf15b600e735cb67e
phish2011-12-31d03t01.flac:bb857dffd0664daed36538333671b33a
phish2011-12-31d03t02.flac:e98723480dbaf464ea85af0f2e18e35a
phish2011-12-31d03t03.flac:72848675c821f407d0102a8e35ba81ec
phish2011-12-31d03t04.flac:55dff7dfbf9d94708b4d3e5f341c1c29
phish2011-12-31d03t05.flac:ad81dcf42c1f81c44959be725212555c
phish2011-12-31d03t06.flac:4f2bcc463fa2d42f8ac76c565ddfba3a
phish2011-12-31d03t07.flac:0e8dd7c03ff1395fef90ee16363f75af
phish2011-12-31d03t08.flac:ef9c4319329bcb8080a1b8151dc6aa8c
phish2011-12-31d03t09.flac:912c41dc1cc2b2a32387a3182a1eb60e

Shntool

    length     expanded size    cdr  WAVE problems  fmt   ratio  filename
     6:04.31       64282556 B   ---   --   ---xx   flac  0.4990  phish2011-12-31d01t01.flac
     7:44.61       81993116 B   ---   --   ---xx   flac  0.4872  phish2011-12-31d01t02.flac
     8:02.13       85055420 B   ---   --   ---xx   flac  0.4631  phish2011-12-31d01t03.flac
     5:42.64       60479372 B   ---   --   ---xx   flac  0.5118  phish2011-12-31d01t04.flac
     2:54.30       30764204 B   ---   --   ---xx   flac  0.4285  phish2011-12-31d01t05.flac
     9:23.62       99459068 B   ---   --   ---xx   flac  0.4689  phish2011-12-31d01t06.flac
     6:15.07       66166508 B   ---   --   ---xx   flac  0.4572  phish2011-12-31d01t07.flac
     8:19.39       88115372 B   ---   --   ---xx   flac  0.4687  phish2011-12-31d01t08.flac
     8:22.02       88557548 B   ---   --   ---xx   flac  0.4841  phish2011-12-31d01t09.flac
     8:15.66       87473276 B   ---   --   ---xx   flac  0.4777  phish2011-12-31d01t10.flac
     1:40.14       17672972 B   ---   --   ---xx   flac  0.4905  phish2011-12-31d01t11.flac
     1:27.23       15400940 B   ---   --   ---xx   flac  0.4828  phish2011-12-31d01t12.flac
     1:12.37       12787868 B   ---   --   ---xx   flac  0.5163  phish2011-12-31d01t13.flac
     2:51.53       30289100 B   ---   --   ---xx   flac  0.5263  phish2011-12-31d01t14.flac
     6:56.24       73438892 B   ---   --   ---xx   flac  0.4934  phish2011-12-31d02t01.flac
    12:14.49      129592892 B   ---   --   ---xx   flac  0.4801  phish2011-12-31d02t02.flac
     8:29.14       89820572 B   ---   --   ---xx   flac  0.4735  phish2011-12-31d02t03.flac
     8:11.02       86617148 B   ---   --   ---xx   flac  0.4608  phish2011-12-31d02t04.flac
     5:30.62       58357868 B   ---   --   ---xx   flac  0.4515  phish2011-12-31d02t05.flac
     9:17.54       98381852 B   ---   --   ---xx   flac  0.4782  phish2011-12-31d02t06.flac
     5:47.12       61239068 B   ---   --   ---xx   flac  0.4591  phish2011-12-31d02t07.flac
     6:12.72       65790188 B   ---   --   ---xx   flac  0.5222  phish2011-12-31d02t08.flac
     7:08.73       75670940 B   ---   --   ---xx   flac  0.4914  phish2011-12-31d02t09.flac
     4:52.03       51515900 B   ---   --   ---xx   flac  0.5065  phish2011-12-31d03t01.flac
    10:54.74      115539692 B   ---   --   ---xx   flac  0.5104  phish2011-12-31d03t02.flac
     3:21.36       35541116 B   ---   --   ---xx   flac  0.5402  phish2011-12-31d03t03.flac
    11:13.58      118853660 B   ---   --   ---xx   flac  0.5205  phish2011-12-31d03t04.flac
     6:21.04       67217852 B   ---   --   ---xx   flac  0.4862  phish2011-12-31d03t05.flac
     8:11.39       86704172 B   ---   --   ---xx   flac  0.4861  phish2011-12-31d03t06.flac
     5:43.63       60653420 B   ---   --   ---xx   flac  0.4394  phish2011-12-31d03t07.flac
     7:48.52       82677548 B   ---   --   ---xx   flac  0.5316  phish2011-12-31d03t08.flac
     9:42.62      102810668 B   ---   --   ---xx   flac  0.4607  phish2011-12-31d03t09.flac
   216:15.55     2288920768 B                            0.4849  (32 files)











Show Checksums
16bit-FFP
phish2011-12-31d01t01.flac:2d9443eb258fa551d0a532726691de6e
phish2011-12-31d01t02.flac:8a56348b2fdf59295f0d8ccb94ef5724
phish2011-12-31d01t03.flac:bb14c550a3521ae02732e0439e57663d
phish2011-12-31d01t04.flac:0c14198cd38c39f18939217b3d357752
phish2011-12-31d01t05.flac:c11368f8105d57d42acaa221dcf7538d
phish2011-12-31d01t06.flac:17be6e4b0c5375acf3c4ecdd747e1e75
phish2011-12-31d01t07.flac:8e241d696e73a86e5a24aa1e3cad8b93
phish2011-12-31d01t08.flac:9332960274dad93efbd66a29e0499ef2
phish2011-12-31d01t09.flac:2251a71ecc943a8d54c6a0e9b86d4c0f
phish2011-12-31d01t10.flac:76a1153654fa7d7736a6b7fec8b40395
phish2011-12-31d01t11.flac:13654ba563a2f68ae636b2bc057f57b0
phish2011-12-31d01t12.flac:4cbd7d18549a165b92b196eed4af7a73
phish2011-12-31d01t13.flac:68ea2b3ea6e40fa9706feb3186dc1937
phish2011-12-31d01t14.flac:304f2e80ab083697b3ba4de681eb94af
phish2011-12-31d02t01.flac:8d38a7717b6332c6533a9fa3c759f6a5
phish2011-12-31d02t02.flac:d9f8c024c27856f40bdf7cdf1a61b1ea
phish2011-12-31d02t03.flac:1f9a3266089f188257c349db049ddcee
phish2011-12-31d02t04.flac:adb9585e35da1b37f5a65ace1c8155b4
phish2011-12-31d02t05.flac:3546b7fba8398f6720b985fe2733166d
phish2011-12-31d02t06.flac:fe94370a16908511cce1dc3c0b11c18f
phish2011-12-31d02t07.flac:efccae9c28f511aec08219260f05d38b
phish2011-12-31d02t08.flac:ac923e41b4d9c446be134fab8e2539b0
phish2011-12-31d02t09.flac:777968bfeea3c6cbf15b600e735cb67e
phish2011-12-31d03t01.flac:bb857dffd0664daed36538333671b33a
phish2011-12-31d03t02.flac:e98723480dbaf464ea85af0f2e18e35a
phish2011-12-31d03t03.flac:72848675c821f407d0102a8e35ba81ec
phish2011-12-31d03t04.flac:55dff7dfbf9d94708b4d3e5f341c1c29
phish2011-12-31d03t05.flac:ad81dcf42c1f81c44959be725212555c
phish2011-12-31d03t06.flac:4f2bcc463fa2d42f8ac76c565ddfba3a
phish2011-12-31d03t07.flac:0e8dd7c03ff1395fef90ee16363f75af
phish2011-12-31d03t08.flac:ef9c4319329bcb8080a1b8151dc6aa8c
phish2011-12-31d03t09.flac:912c41dc1cc2b2a32387a3182a1eb60e

Comments
Add Comment
Other Sources (comments)
flac24; Schoeps MK41... (0) flac16; Neumann... (0)
Date User Comment