Browse Collections Artists Sources   Search Dates

Add Show    List Management    Help


Phish 12/29/11
Madison Square Garden, New York, NY
Comments Add Comment    Source Collectors    Add to Collection    Add to Want List    History
Source # 117895 Other Sources
Entered by Jason Sobel
Checksums 16bit-FFP
Disc Counts 0 / 0
Media Size Compressed: 894.31 MB (937754857 bytes)
Date Circulated
Date Added
01/02/2012
01/02/2012
Source Summary flac16; Schoeps MK41 > KC5 > CMC6 > Sonosax SX-M2 > Apogee Mini-me (aes out) > Edirol R-44 (24bit/96khz); SDHC Card > USB > Macbook Pro > Wave Editor (tracking, fades, add gain, resample(izotope)/dither(mbit+)to 16 bit/44.1k) > XAct > FLAC (Level 8); Taped & Transferred by Andy Murray 
Source Information - Download Text | Download Zip
Phish
2011-12-29
Madison Square Garden
New York, NY

Recorded and transferred by Andy Murray

From OTS mics were DIN

Source: Schoeps MK41>KC5>CMC6>Sonosax SX-M2>Apogee Mini-me(aes out,24bit/96khz)>COAX>Edirol R-44

Lineage: SDHC Card>USB>Macbook Pro>Wave Editor(tracking,fades,add gain,resample(izotope)/dither(mbit+)to 16 bit/44.1k)>XAct(FLAC 8,ffp,fix sbe)

2 Sets
3 Discs

Disc 1:
Set 1:

01 crowd
02 The Sloth
03 You Enjoy Myself
04 Back On the Train
05 The Moma Dance
06 Funky Bitch
07 Maze
08 Roses Are Free
09 Halley's Comet
10 Run Like An Antelope

Disc 2:
Set 2:

01 crowd
02 Crosseyed And Painless
03 Simple
04 Lifeboy
05 Guyute


Disc 3:
Set 2 continued…

06 Mike's Song
07 Chalkdust Torture >
08 I Am Hydrogen >
09 Weekapaug Groove
10 Show Of Life
11 Character Zero

Encore:
12 Loving Cup

;flac fingerprints generated by xACT 2.15 on 2011-12-30 15:17:03 -0500

ph2011-12-29_mk41_1644_d1t01.flac:dc4d4fcf14b0241dbe8bf5a44f6b5ccf
ph2011-12-29_mk41_1644_d1t02.flac:f90376afc12753085b6460f3dfcfcc40
ph2011-12-29_mk41_1644_d1t03.flac:61a0e13a65d8d1792a458ae3b3b8fe9f
ph2011-12-29_mk41_1644_d1t04.flac:e9dc3aa9183a1ba7730b2f6175a550b8
ph2011-12-29_mk41_1644_d1t05.flac:a8101f61ec36ebcfaad7a84b939f138d
ph2011-12-29_mk41_1644_d1t06.flac:28018275d0c8bfa63a5ce6165eeba3dd
ph2011-12-29_mk41_1644_d1t07.flac:cebd16958000d7333bfaec8b4f12d052
ph2011-12-29_mk41_1644_d1t08.flac:89e545abc8fd6a281cbef7827581bb94
ph2011-12-29_mk41_1644_d1t09.flac:2b7739c668f3e9128cad909915e34c41
ph2011-12-29_mk41_1644_d1t10.flac:9d56e5b1cfbf09f688deed88df44b802
ph2011-12-29_mk41_1644_d2t01.flac:64b86e5f75dc4d1038e70ff857629e79
ph2011-12-29_mk41_1644_d2t02.flac:b7fb44d4c659ce1bfa414ba47ba555c4
ph2011-12-29_mk41_1644_d2t03.flac:c9b5f586c69f8a7f6a91b30bb71efebc
ph2011-12-29_mk41_1644_d2t04.flac:5791192fbc7b57f1c1e3d003857afb99
ph2011-12-29_mk41_1644_d2t05.flac:18fecc678eb728a68a89e5eb070312a8
ph2011-12-29_mk41_1644_d2t06.flac:81e422116a4550b0cfe6308ec040d108
ph2011-12-29_mk41_1644_d2t07.flac:f8a78ac40cf23fcaa89beb3683b0f507
ph2011-12-29_mk41_1644_d2t08.flac:4cd5aaaeacbb3167899d96ba062d028b
ph2011-12-29_mk41_1644_d2t09.flac:a3c9515f7ba5e82083d36e6eeb648313
ph2011-12-29_mk41_1644_d2t10.flac:fd186149e9549b1f16d08fe3b265f149
ph2011-12-29_mk41_1644_d2t11.flac:a8629e84211bd35d1df788253d25c2c4
ph2011-12-29_mk41_1644_d2t12.flac:45293dd3277bfb96951590df9cf803cd

    length     expanded size    cdr  WAVE problems  fmt   ratio  filename
     0:36.13        6381020 B   ---   --   -----    wav  1.0000  ph2011-12-29_mk41_1644_d1t01.wav
     4:25.34       46826012 B   ---   --   -----    wav  1.0000  ph2011-12-29_mk41_1644_d1t02.wav
    19:05.54      202105052 B   ---   --   -----    wav  1.0000  ph2011-12-29_mk41_1644_d1t03.wav
     6:31.40       69066524 B   ---   --   -----    wav  1.0000  ph2011-12-29_mk41_1644_d1t04.wav
     7:04.10       74817164 B   ---   --   -----    wav  1.0000  ph2011-12-29_mk41_1644_d1t05.wav
     7:11.30       76099004 B   ---   --   -----    wav  1.0000  ph2011-12-29_mk41_1644_d1t06.wav
    10:00.50      105957644 B   ---   --   -----    wav  1.0000  ph2011-12-29_mk41_1644_d1t07.wav
     5:32.14       58597772 B   ---   --   -----    wav  1.0000  ph2011-12-29_mk41_1644_d1t08.wav
     7:05.33       75047660 B   ---   --   -----    wav  1.0000  ph2011-12-29_mk41_1644_d1t09.wav
    10:46.44      114057932 B   ---   --   -----    wav  1.0000  ph2011-12-29_mk41_1644_d1t10.wav
     2:33.07       27005708 B   ---   --   -----    wav  1.0000  ph2011-12-29_mk41_1644_d2t01.wav
    10:03.45      106475084 B   ---   --   -----    wav  1.0000  ph2011-12-29_mk41_1644_d2t02.wav
     8:35.24       90902492 B   ---   --   -----    wav  1.0000  ph2011-12-29_mk41_1644_d2t03.wav
     7:56.46       84074636 B   ---   --   -----    wav  1.0000  ph2011-12-29_mk41_1644_d2t04.wav
    10:59.30      116318204 B   ---   --   -----    wav  1.0000  ph2011-12-29_mk41_1644_d2t05.wav
     7:50.73       83079740 B   ---   --   -----    wav  1.0000  ph2011-12-29_mk41_1644_d2t06.wav
     5:55.34       62702012 B   ---   --   -----    wav  1.0000  ph2011-12-29_mk41_1644_d2t07.wav
     2:38.31       27944156 B   ---   --   -----    wav  1.0000  ph2011-12-29_mk41_1644_d2t08.wav
    10:19.54      109318652 B   ---   --   -----    wav  1.0000  ph2011-12-29_mk41_1644_d2t09.wav
     6:27.25       68325644 B   ---   --   -----    wav  1.0000  ph2011-12-29_mk41_1644_d2t10.wav
    10:02.68      106352780 B   ---   --   -----    wav  1.0000  ph2011-12-29_mk41_1644_d2t11.wav
     7:00.63       74236220 B   ---   --   -----    wav  1.0000  ph2011-12-29_mk41_1644_d2t12.wav
   168:42.72     1785691112 B                            1.0000  (22 files)
Show Checksums
16bit-FFP
ph2011-12-29_mk41_1644_d1t01.flac:dc4d4fcf14b0241dbe8bf5a44f6b5ccf
ph2011-12-29_mk41_1644_d1t02.flac:f90376afc12753085b6460f3dfcfcc40
ph2011-12-29_mk41_1644_d1t03.flac:61a0e13a65d8d1792a458ae3b3b8fe9f
ph2011-12-29_mk41_1644_d1t04.flac:e9dc3aa9183a1ba7730b2f6175a550b8
ph2011-12-29_mk41_1644_d1t05.flac:a8101f61ec36ebcfaad7a84b939f138d
ph2011-12-29_mk41_1644_d1t06.flac:28018275d0c8bfa63a5ce6165eeba3dd
ph2011-12-29_mk41_1644_d1t07.flac:cebd16958000d7333bfaec8b4f12d052
ph2011-12-29_mk41_1644_d1t08.flac:89e545abc8fd6a281cbef7827581bb94
ph2011-12-29_mk41_1644_d1t09.flac:2b7739c668f3e9128cad909915e34c41
ph2011-12-29_mk41_1644_d1t10.flac:9d56e5b1cfbf09f688deed88df44b802
ph2011-12-29_mk41_1644_d2t01.flac:64b86e5f75dc4d1038e70ff857629e79
ph2011-12-29_mk41_1644_d2t02.flac:b7fb44d4c659ce1bfa414ba47ba555c4
ph2011-12-29_mk41_1644_d2t03.flac:c9b5f586c69f8a7f6a91b30bb71efebc
ph2011-12-29_mk41_1644_d2t04.flac:5791192fbc7b57f1c1e3d003857afb99
ph2011-12-29_mk41_1644_d2t05.flac:18fecc678eb728a68a89e5eb070312a8
ph2011-12-29_mk41_1644_d2t06.flac:81e422116a4550b0cfe6308ec040d108
ph2011-12-29_mk41_1644_d2t07.flac:f8a78ac40cf23fcaa89beb3683b0f507
ph2011-12-29_mk41_1644_d2t08.flac:4cd5aaaeacbb3167899d96ba062d028b
ph2011-12-29_mk41_1644_d2t09.flac:a3c9515f7ba5e82083d36e6eeb648313
ph2011-12-29_mk41_1644_d2t10.flac:fd186149e9549b1f16d08fe3b265f149
ph2011-12-29_mk41_1644_d2t11.flac:a8629e84211bd35d1df788253d25c2c4
ph2011-12-29_mk41_1644_d2t12.flac:45293dd3277bfb96951590df9cf803cd

Comments
Add Comment
Other Sources (comments)
flac16; Schoeps... (0) flac16; DPA 4011 >... (0) flac24; DPA 4011 >... (0) flac16; Neumann... (0) flac24; Schoeps MK41... (0) flac24; Schoeps MK41... (0) flac16; Studio... (0) flac24; Studio... (0)
Date User Comment