Browse Collections Artists Sources   Search Dates

Add Show    List Management    Help


Phish 12/30/11
Madison Square Garden, New York, NY
Comments Add Comment    Source Collectors    Add to Collection    Add to Want List    History
Source # 117903 Other Sources
Entered by
Checksums 16bit-FFP
Disc Counts 0 / 0
Media Size Compressed: 930.04 MB (975215089 bytes)
Date Circulated
Date Added
01/02/2012
01/03/2012
Source Summary flac16; Schoeps MK41 > KC5 > CMC6 > Sonosax SX-M2 > Apogee Mini-me (aes out) > Edirol R-44 (24bit/96khz); SDHC Card > USB > Macbook Pro > Wave Editor (tracking, fades, add gain, resample(izotope)/dither(mbit+)to 16 bit/44.1k) > XAct > FLAC (Level 8); Taped & Transferred by Andy Murray 
Source Information - Download Text | Download Zip
Phish
2011-12-30
Madison Square Garden
New York, NY

Recorded and transferred by Andy Murray

From OTS mics were run on the Schoeps STC22g bar(21cm,110degrees)

Source: Schoeps MK41>KC5>CMC6>Sonosax SX-M2>Apogee Mini-me(aes out,24bit/96khz)>COAX>Edirol R-44

Lineage: SDHC Card>USB>Macbook Pro>Wave Editor(tracking,fades,add gain,resample(izotope)/dither(mbit+)to 16 bit/44.1k)>XAct(FLAC 8,ffp,fix sbe)

2 Sets
3 Discs

Disc 1:
Set 1:

01 Intro/crowd
02 Punch You In The Eye >
03 Prince Caspian >
04 Backwards Down The Number Line
05 Nellie Cain
06 Divided Sky
07 Sand
08 Vultures
09 Rift
10 Joy
11 Quinn The Eskimo

Disc 2:
Set 2:

01 Crowd/Intro
02 Wilson >
03 Axilla >
04 Piper >
05 Twist Around >
06 Julius >
07 Golgi Apparatus >
08 2001 >
09 The Horse >
10 Silent In The Morning >
-----recommended split for disc 3-----
11 David Bowie
12 The Squirming Coil

Encore:

13 Boogie On Reggae Woman
14 Good Times, Bad Times

;flac fingerprints generated by xACT 2.15 on 2012-01-02 22:07:56 -0500

ph2011-12-30_mk41_1644_d1t01.flac:02ebc72cfc71cd0d7ac674c395fc2c9b
ph2011-12-30_mk41_1644_d1t02.flac:3dc07cb4211184c9fbdb9e53fe6bd523
ph2011-12-30_mk41_1644_d1t03.flac:156a3d6300f83cb4cafd0c08037d934d
ph2011-12-30_mk41_1644_d1t04.flac:bdcef0e25e39a4d29bd162d58d89e23b
ph2011-12-30_mk41_1644_d1t05.flac:e5bd0f607a739a2c031c74a8da5b93e5
ph2011-12-30_mk41_1644_d1t06.flac:06629cc85902321fc38ab5819ac0065a
ph2011-12-30_mk41_1644_d1t07.flac:33363f7a8e356bfa6131afb5f8dd9ad6
ph2011-12-30_mk41_1644_d1t08.flac:2bba4aaf44bb0e9b4ec90f9be1430e06
ph2011-12-30_mk41_1644_d1t09.flac:8dedcd77191ae85fa05f8bda8cfacbe6
ph2011-12-30_mk41_1644_d1t10.flac:0c3f9ae0331d770c109e319b69b87f76
ph2011-12-30_mk41_1644_d1t11.flac:0cc90f5754f8bf643461e409c58619fa
ph2011-12-30_mk41_1644_d2t01.flac:3aad255892eb15dbbec9d19b324fda8f
ph2011-12-30_mk41_1644_d2t02.flac:f93156045546a691a7303f95557e9f7a
ph2011-12-30_mk41_1644_d2t03.flac:22b757ef4b87b525ec5ff6694297d8dd
ph2011-12-30_mk41_1644_d2t04.flac:4715632bb4dff88fa4ef2f2e3c2192af
ph2011-12-30_mk41_1644_d2t05.flac:7b37017f07cd5977b7fe6bd6a81c2425
ph2011-12-30_mk41_1644_d2t06.flac:126bc4a264bb827e79a920b16ce160be
ph2011-12-30_mk41_1644_d2t07.flac:2ba577f57ed2e0c41b5dc1731f8ab4c5
ph2011-12-30_mk41_1644_d2t08.flac:ea47b01d525814bb7603426e80b286b4
ph2011-12-30_mk41_1644_d2t09.flac:0ca35c8dc92ee019e9309f0e5dfae424
ph2011-12-30_mk41_1644_d2t10.flac:fe0e3c2bf82bf232ef07fde531d10f1c
ph2011-12-30_mk41_1644_d2t11.flac:494a7495f1daccc79d00a6fb1a8b9b58
ph2011-12-30_mk41_1644_d2t12.flac:c54573f8476197ed01ed124a87a8ac23
ph2011-12-30_mk41_1644_d2t13.flac:0ba64e31eb060294cf1bd49c7274aaf5
ph2011-12-30_mk41_1644_d2t14.flac:c760fc15f45d6c637c48040088b0a3e9

    length     expanded size    cdr  WAVE problems  fmt   ratio  filename
     1:18.10       13782764 B   ---   --   -----    wav  1.0000  ph2011-12-30_mk41_1644_d1t01.wav
     8:00.17       84712028 B   ---   --   -----    wav  1.0000  ph2011-12-30_mk41_1644_d1t02.wav
     6:49.25       72206444 B   ---   --   -----    wav  1.0000  ph2011-12-30_mk41_1644_d1t03.wav
     6:52.14       72709772 B   ---   --   -----    wav  1.0000  ph2011-12-30_mk41_1644_d1t04.wav
     3:05.09       32655212 B   ---   --   -----    wav  1.0000  ph2011-12-30_mk41_1644_d1t05.wav
    16:18.21      172568636 B   ---   --   -----    wav  1.0000  ph2011-12-30_mk41_1644_d1t06.wav
     9:23.61       99456716 B   ---   --   -----    wav  1.0000  ph2011-12-30_mk41_1644_d1t07.wav
     5:49.35       61645964 B   ---   --   -----    wav  1.0000  ph2011-12-30_mk41_1644_d1t08.wav
     6:06.46       64670636 B   ---   --   -----    wav  1.0000  ph2011-12-30_mk41_1644_d1t09.wav
     5:51.57       62050508 B   ---   --   -----    wav  1.0000  ph2011-12-30_mk41_1644_d1t10.wav
     6:51.24       72556892 B   ---   --   -----    wav  1.0000  ph2011-12-30_mk41_1644_d1t11.wav
     0:53.12        9377468 B   ---   --   -----    wav  1.0000  ph2011-12-30_mk41_1644_d2t01.wav
     4:37.51       48982796 B   ---   --   -----    wav  1.0000  ph2011-12-30_mk41_1644_d2t02.wav
     3:32.33       37474460 B   ---   --   -----    wav  1.0000  ph2011-12-30_mk41_1644_d2t03.wav
    15:14.66      161384876 B   ---   --   -----    wav  1.0000  ph2011-12-30_mk41_1644_d2t04.wav
     7:29.49       79318892 B   ---   --   -----    wav  1.0000  ph2011-12-30_mk41_1644_d2t05.wav
     7:15.11       76759916 B   ---   --   -----    wav  1.0000  ph2011-12-30_mk41_1644_d2t06.wav
     4:47.60       50767964 B   ---   --   -----    wav  1.0000  ph2011-12-30_mk41_1644_d2t07.wav
     7:21.74       77966492 B   ---   --   -----    wav  1.0000  ph2011-12-30_mk41_1644_d2t08.wav
     1:08.34       12075212 B   ---   --   -----    wav  1.0000  ph2011-12-30_mk41_1644_d2t09.wav
     4:45.35       50356364 B   ---   --   -----    wav  1.0000  ph2011-12-30_mk41_1644_d2t10.wav
    12:28.06      131961356 B   ---   --   -----    wav  1.0000  ph2011-12-30_mk41_1644_d2t11.wav
    11:56.43      126403580 B   ---   --   -----    wav  1.0000  ph2011-12-30_mk41_1644_d2t12.wav
     6:18.60       66820364 B   ---   --   -----    wav  1.0000  ph2011-12-30_mk41_1644_d2t13.wav
     5:59.29       63395852 B   ---   --   -----    wav  1.0000  ph2011-12-30_mk41_1644_d2t14.wav
   170:15.57     1802061164 B                            1.0000  (25 files)
Show Checksums
16bit-FFP
ph2011-12-30_mk41_1644_d1t01.flac:02ebc72cfc71cd0d7ac674c395fc2c9b
ph2011-12-30_mk41_1644_d1t02.flac:3dc07cb4211184c9fbdb9e53fe6bd523
ph2011-12-30_mk41_1644_d1t03.flac:156a3d6300f83cb4cafd0c08037d934d
ph2011-12-30_mk41_1644_d1t04.flac:bdcef0e25e39a4d29bd162d58d89e23b
ph2011-12-30_mk41_1644_d1t05.flac:e5bd0f607a739a2c031c74a8da5b93e5
ph2011-12-30_mk41_1644_d1t06.flac:06629cc85902321fc38ab5819ac0065a
ph2011-12-30_mk41_1644_d1t07.flac:33363f7a8e356bfa6131afb5f8dd9ad6
ph2011-12-30_mk41_1644_d1t08.flac:2bba4aaf44bb0e9b4ec90f9be1430e06
ph2011-12-30_mk41_1644_d1t09.flac:8dedcd77191ae85fa05f8bda8cfacbe6
ph2011-12-30_mk41_1644_d1t10.flac:0c3f9ae0331d770c109e319b69b87f76
ph2011-12-30_mk41_1644_d1t11.flac:0cc90f5754f8bf643461e409c58619fa
ph2011-12-30_mk41_1644_d2t01.flac:3aad255892eb15dbbec9d19b324fda8f
ph2011-12-30_mk41_1644_d2t02.flac:f93156045546a691a7303f95557e9f7a
ph2011-12-30_mk41_1644_d2t03.flac:22b757ef4b87b525ec5ff6694297d8dd
ph2011-12-30_mk41_1644_d2t04.flac:4715632bb4dff88fa4ef2f2e3c2192af
ph2011-12-30_mk41_1644_d2t05.flac:7b37017f07cd5977b7fe6bd6a81c2425
ph2011-12-30_mk41_1644_d2t06.flac:126bc4a264bb827e79a920b16ce160be
ph2011-12-30_mk41_1644_d2t07.flac:2ba577f57ed2e0c41b5dc1731f8ab4c5
ph2011-12-30_mk41_1644_d2t08.flac:ea47b01d525814bb7603426e80b286b4
ph2011-12-30_mk41_1644_d2t09.flac:0ca35c8dc92ee019e9309f0e5dfae424
ph2011-12-30_mk41_1644_d2t10.flac:fe0e3c2bf82bf232ef07fde531d10f1c
ph2011-12-30_mk41_1644_d2t11.flac:494a7495f1daccc79d00a6fb1a8b9b58
ph2011-12-30_mk41_1644_d2t12.flac:c54573f8476197ed01ed124a87a8ac23
ph2011-12-30_mk41_1644_d2t13.flac:0ba64e31eb060294cf1bd49c7274aaf5
ph2011-12-30_mk41_1644_d2t14.flac:c760fc15f45d6c637c48040088b0a3e9

Comments
Add Comment
Other Sources (comments)
flac16; AKG C414XLS... (0) flac16; Schoeps... (0) flac24; Schoeps MK41... (0) flac16; Neumann... (0) flac16; Studio... (0) flac24; Studio... (0) flac16; Microtech... (0) flac24; Schoeps MK41... (0)
Date User Comment