Browse Collections Artists Sources   Search Dates

Add Show    List Management    Help


Phish 12/28/11
Madison Square Garden, New York, NY
Comments Add Comment    Source Collectors    Add to Collection    Add to Want List    History
Source # 117970 Other Sources
Entered by Jason Sobel
Checksums 16bit-FFP
Disc Counts 0 / 0
Media Size Compressed: 917.98 MB (962570777 bytes)
Date Circulated
Date Added
01/04/2012
01/04/2012
Source Summary flac16; Schoeps MK41 > KC5 > CMC6 > Sonosax SX-M2 > Apogee Mini-me (aes out) > Edirol R-44 (24bit/96khz); SDHC Card > USB > Macbook Pro > Wave Editor (tracking, fades, resample(izotope)/dither(mbit+)to 16 bit/44.1k) > XAct > FLAC (Level 8); Taped & Transferred by Andy Murray 
Source Information - Download Text | Download Zip
Phish
2011-12-28
Madison Square Garden
New York, NY

Recorded and transferred by Andy Murray

From OTS mics were DIN

Source: Schoeps MK41>KC5>CMC6>Sonosax SX-M2>Apogee Mini-me(aes out,24bit/96khz)>COAX>Edirol R-44

Lineage: SDHC Card>USB>Macbook Pro>Wave Editor(tracking,fades,resample(izotope)/dither(mbit+)to 16 bit/44.1k)>XAct(FLAC 8,ffp,fix sbe)

The encore did not record on my deck so I patched in Brian Durham's source

OTS: Slightly LoC, on stand approx. 10' -

Schoeps MK41 (DINa) > Schoeps KCY > Schoeps VMS-5u > Mytek 192 > Marantz PMD-661 @ 96 kHz 24 bits

SDHC 16 GB Card > Card Reader Slot on Dell XPS m1730 >FLAC

2 Sets
2 Discs

Disc 1:
Set 1:

01 Intro/crowd
02 Free
03 Glide
04 Possum
05 Cities
06 The Ballad Of Curtis Lowe
07 Stash
08 Contact
09 Sample In A Jar
10 Kill Devil Falls
---recommended split for cd---
11 Bathtub Gin

Disc 2:
Set 2:

01 Intro/crowd
02 Birds Of A Feather
03 Carini>
04 Tweezer>
05 My Friend, My Friend
06 Rock & Roll>
07 NICU
08 Bouncing Around The Room
---recommended split for cd---
09 Harry Hood
10 Bug

Encore:
11 Tube
12 Rocky Top
13 Tweezer Reprise

;flac fingerprints generated by xACT 2.15 on 2012-01-04 15:13:10 -0500

ph2011-12-28_mk41_1644_d1t01.flac:58fef50d0432f5967dbccd3deac4327b
ph2011-12-28_mk41_1644_d1t02.flac:e947f3e4da4299c3df60ce960e3dd833
ph2011-12-28_mk41_1644_d1t03.flac:851fb9f6ed26bd392f31cb1362ebcd9c
ph2011-12-28_mk41_1644_d1t04.flac:1cb37f361b07f2f3a8c954d68b40bad1
ph2011-12-28_mk41_1644_d1t05.flac:b7ebce85263bb68d697b600b0712a5c0
ph2011-12-28_mk41_1644_d1t06.flac:c59974f1e79657b81f5ca9f510938412
ph2011-12-28_mk41_1644_d1t07.flac:d43969e868826ce9fd6b15c523fd71e8
ph2011-12-28_mk41_1644_d1t08.flac:83ed635bb29ac53cdf367ae1b45ed558
ph2011-12-28_mk41_1644_d1t09.flac:a1b83c0d210c616b04340cd946fefbd9
ph2011-12-28_mk41_1644_d1t10.flac:90a3c8028c5d5ff42a152f2cc1273f88
ph2011-12-28_mk41_1644_d1t11.flac:6024f409afcc6c8fe240040c8a155637
ph2011-12-28_mk41_1644_d2t01.flac:b1abb44dc1b5291e3dcd2e0ea5579eb7
ph2011-12-28_mk41_1644_d2t02.flac:f1ed722b55651a8d489d615c436922d6
ph2011-12-28_mk41_1644_d2t03.flac:1c9fb9156e3b368f5b634fab506c3bb6
ph2011-12-28_mk41_1644_d2t04.flac:0743b3bdd51bc4df4235149fa8781b5a
ph2011-12-28_mk41_1644_d2t05.flac:8b7e0390ba8303f8ae4a584191a610bd
ph2011-12-28_mk41_1644_d2t06.flac:039d4f6c23ad3afddbbbf66ffe9e44c2
ph2011-12-28_mk41_1644_d2t07.flac:39b62e313c805f7f826a3ba51e7ed61f
ph2011-12-28_mk41_1644_d2t08.flac:59db16136df61e7ac2731acc4445560d
ph2011-12-28_mk41_1644_d2t09.flac:a7c500bcc9f251f749e830ae7be1073b
ph2011-12-28_mk41_1644_d2t10.flac:f38f9e878d53969433d27be333516a94
ph2011-12-28_mk41_1644_d2t11.flac:e524b49af86bc907cc075fe21dded188
ph2011-12-28_mk41_1644_d2t12.flac:0a923f9ffe1cdeb630ad258c3b7cc813
ph2011-12-28_mk41_1644_d2t13.flac:1ef9dd1f22e124da19be16a9cbf13098

    length     expanded size    cdr  WAVE problems  fmt   ratio  filename
     0:39.40        6973724 B   ---   --   -----    wav  1.0000  ph2011-12-28_mk41_1644_d1t01.wav
     7:17.38       77176220 B   ---   --   -----    wav  1.0000  ph2011-12-28_mk41_1644_d1t02.wav
     4:23.47       46503788 B   ---   --   -----    wav  1.0000  ph2011-12-28_mk41_1644_d1t03.wav
    10:12.22      108008588 B   ---   --   -----    wav  1.0000  ph2011-12-28_mk41_1644_d1t04.wav
    10:35.48      112126940 B   ---   --   -----    wav  1.0000  ph2011-12-28_mk41_1644_d1t05.wav
     5:40.45       60081884 B   ---   --   -----    wav  1.0000  ph2011-12-28_mk41_1644_d1t06.wav
    11:01.69      116762732 B   ---   --   -----    wav  1.0000  ph2011-12-28_mk41_1644_d1t07.wav
     6:42.63       71061020 B   ---   --   -----    wav  1.0000  ph2011-12-28_mk41_1644_d1t08.wav
     5:27.33       57760460 B   ---   --   -----    wav  1.0000  ph2011-12-28_mk41_1644_d1t09.wav
     7:47.12       82407068 B   ---   --   -----    wav  1.0000  ph2011-12-28_mk41_1644_d1t10.wav
    13:13.08      139904060 B   ---   --   -----    wav  1.0000  ph2011-12-28_mk41_1644_d1t11.wav
     1:45.20       18569084 B   ---   --   -----    wav  1.0000  ph2011-12-28_mk41_1644_d2t01.wav
     6:10.71       65435036 B   ---   --   -----    wav  1.0000  ph2011-12-28_mk41_1644_d2t02.wav
     8:50.55       93621404 B   ---   --   -----    wav  1.0000  ph2011-12-28_mk41_1644_d2t03.wav
    12:38.18      133753580 B   ---   --   -----    wav  1.0000  ph2011-12-28_mk41_1644_d2t04.wav
     5:39.60       59940764 B   ---   --   -----    wav  1.0000  ph2011-12-28_mk41_1644_d2t05.wav
    12:19.07      130376108 B   ---   --   -----    wav  1.0000  ph2011-12-28_mk41_1644_d2t06.wav
     5:51.43       62017580 B   ---   --   -----    wav  1.0000  ph2011-12-28_mk41_1644_d2t07.wav
     4:01.11       42538316 B   ---   --   -----    wav  1.0000  ph2011-12-28_mk41_1644_d2t08.wav
    13:01.21      137817836 B   ---   --   -----    wav  1.0000  ph2011-12-28_mk41_1644_d2t09.wav
    11:55.07      126142508 B   ---   --   -----    wav  1.0000  ph2011-12-28_mk41_1644_d2t10.wav
     3:17.71       34917836 B   ---   --   -----    wav  1.0000  ph2011-12-28_mk41_1644_d2t11.wav
     2:34.01       27167996 B   ---   --   -----    wav  1.0000  ph2011-12-28_mk41_1644_d2t12.wav
     4:39.46       49323836 B   ---   --   -----    wav  1.0000  ph2011-12-28_mk41_1644_d2t13.wav
   175:46.31     1860388368 B                            1.0000  (24 files)
Show Checksums
16bit-FFP
ph2011-12-28_mk41_1644_d1t01.flac:58fef50d0432f5967dbccd3deac4327b
ph2011-12-28_mk41_1644_d1t02.flac:e947f3e4da4299c3df60ce960e3dd833
ph2011-12-28_mk41_1644_d1t03.flac:851fb9f6ed26bd392f31cb1362ebcd9c
ph2011-12-28_mk41_1644_d1t04.flac:1cb37f361b07f2f3a8c954d68b40bad1
ph2011-12-28_mk41_1644_d1t05.flac:b7ebce85263bb68d697b600b0712a5c0
ph2011-12-28_mk41_1644_d1t06.flac:c59974f1e79657b81f5ca9f510938412
ph2011-12-28_mk41_1644_d1t07.flac:d43969e868826ce9fd6b15c523fd71e8
ph2011-12-28_mk41_1644_d1t08.flac:83ed635bb29ac53cdf367ae1b45ed558
ph2011-12-28_mk41_1644_d1t09.flac:a1b83c0d210c616b04340cd946fefbd9
ph2011-12-28_mk41_1644_d1t10.flac:90a3c8028c5d5ff42a152f2cc1273f88
ph2011-12-28_mk41_1644_d1t11.flac:6024f409afcc6c8fe240040c8a155637
ph2011-12-28_mk41_1644_d2t01.flac:b1abb44dc1b5291e3dcd2e0ea5579eb7
ph2011-12-28_mk41_1644_d2t02.flac:f1ed722b55651a8d489d615c436922d6
ph2011-12-28_mk41_1644_d2t03.flac:1c9fb9156e3b368f5b634fab506c3bb6
ph2011-12-28_mk41_1644_d2t04.flac:0743b3bdd51bc4df4235149fa8781b5a
ph2011-12-28_mk41_1644_d2t05.flac:8b7e0390ba8303f8ae4a584191a610bd
ph2011-12-28_mk41_1644_d2t06.flac:039d4f6c23ad3afddbbbf66ffe9e44c2
ph2011-12-28_mk41_1644_d2t07.flac:39b62e313c805f7f826a3ba51e7ed61f
ph2011-12-28_mk41_1644_d2t08.flac:59db16136df61e7ac2731acc4445560d
ph2011-12-28_mk41_1644_d2t09.flac:a7c500bcc9f251f749e830ae7be1073b
ph2011-12-28_mk41_1644_d2t10.flac:f38f9e878d53969433d27be333516a94
ph2011-12-28_mk41_1644_d2t11.flac:e524b49af86bc907cc075fe21dded188
ph2011-12-28_mk41_1644_d2t12.flac:0a923f9ffe1cdeb630ad258c3b7cc813
ph2011-12-28_mk41_1644_d2t13.flac:1ef9dd1f22e124da19be16a9cbf13098

Comments
Add Comment
Other Sources (comments)
flac16; Schoeps... (0) flac16; Neumann... (0) flac16; Schoeps... (0) flac24; Schoeps MK41... (0) flac16; Neumann... (0) flac24; Schoeps MK41... (0) flac16; Studio... (0) flac24; Studio... (0) flac16; Microtech... (0)
Date User Comment