Browse Collections Artists Sources   Search Dates

Add Show    List Management    Help


Grateful Dead 10/04/81
Rainbow Theater, London, England
Comments Add Comment    Source Collectors    Add to Collection    Add to Want List    History
Source # 118248 Other Sources
Entered by Matt Vernon
Checksums ffp , flac-md5
Disc Counts 0 / 0
Media Size Compressed: 1.81 GB (1944220748 bytes)
Date Circulated
Date Added
01/14/2012
01/14/2012
Source Summary flac16; Source: SBD > ? > Cassette, kindly provided by Seaweed1010 & Bernie Brown. Transfer: Maxell XLIIS > Nakamichi DR-2 > Edirol FA-66 > Wavelab > R8Brain > CD-Wave > TLH > FLAC 1644 tagged. Transfer by Andrew F. Januray 2012 
  Archive
Source Information - Download Text | Download Zip
GRATEFUL DEAD
Rainbow Theatre
London England
10-04-1981 (aka 04-10-1981 in the UK)

s1t01 banter & tuning
s1t02 Jack Straw
s1t03 Friend of the Devil >
s1t04 El Paso
s1t05 Jackaroe
s1t06 Beat it on Down the Line >
s1t07 Brown Eyed Women >
s1t08 Minglewood Blues
s1t09 Row Jimmy >
s1t10 Let it Grow >
s1t11 Deal

s2t01 Cold Rain & Snow >
s2t02 Samson & Delilah
s2t03 Scarlet Begonias >
s2t04 Fire on the Mountain
s2t05 Lost Sailor >
s2t06 Saint of Circumstance >
s2t07 Bobby & Drums Jam >
s2t08 Drums >
s2t09 Space >
s2t10 Spanish Jam >
s2t11 The Other One >
s2t12 Wharf Rat >
s2t13 Sugar Magnolia
s2t14 Encore: //Don't Ease Me In

Source: SBD > ? > Cassette, kindly provided by Seaweed1010 & Bernie Brown.

Transfer: Maxell XLIIS > Nakamichi DR-2 > Edirol FA-66 > Wavelab > R8Brain >
CD-Wave > TLH > FLAC 1644 tagged. Transfer by Andrew F. Januray 2012

Notes: Same root source as ID-12887, and with the same cuts and tape flips,
however, this version does not suffer from the heavy-handed noise reduction
and pitch problems found on that one. This version is aprx 3rd or 4th Gen;
there's some hiss and minor pitch issues, but it's very listenable...enjoy!

An AUD source (MAC > DAT, thanks Richie!) covers the following:
- banter & tuning, 0:00 > 0:51.
- Minglewood Blues, 2:52 > 3:10.
- Cold Rain & Snow, 0:00 > 0:25.
- Samson & Delilah, 2:28 > 2:42.
- Saint of Circumstance, 5:39 > 6:08.
- Sugar Magnolia, 3:28 > 3:41.

On both Seaweed's tape and ID-12887, Sugar Magnolia and Don't Ease Me In seem
to derive from an alternate source, and sounded somewhat better on the ID-12887
source. Those two songs were pitch-adjusted and added onto this file-set. The
AUD DAT did not cover the start of Don't Ease, so is still missing a small bit.

    length     expanded size    cdr  WAVE problems  fmt   ratio  filename
     3:58.15       42018524 B   ---   --   ---xx   flac  0.5574  gd1981-10-04s1t01.flac
     6:10.70       65432684 B   ---   --   ---xx   flac  0.6271  gd1981-10-04s1t02.flac
     9:13.45       97655084 B   ---   --   ---xx   flac  0.6049  gd1981-10-04s1t03.flac
     5:04.73       53797340 B   ---   --   ---xx   flac  0.6044  gd1981-10-04s1t04.flac
     4:49.49       51094892 B   ---   --   ---xx   flac  0.6034  gd1981-10-04s1t05.flac
     3:02.66       32260076 B   ---   --   ---xx   flac  0.6088  gd1981-10-04s1t06.flac
     5:20.52       56570348 B   ---   --   ---xx   flac  0.5932  gd1981-10-04s1t07.flac
     6:37.19       70075532 B   ---   --   ---xx   flac  0.6169  gd1981-10-04s1t08.flac
    11:04.09      117150812 B   ---   --   ---xx   flac  0.6247  gd1981-10-04s1t09.flac
    12:09.39      128687372 B   ---   --   ---xx   flac  0.6325  gd1981-10-04s1t10.flac
     8:56.51       94670396 B   ---   --   ---xx   flac  0.6392  gd1981-10-04s1t11.flac
     6:50.49       72439292 B   ---   --   ---xx   flac  0.6062  gd1981-10-04s2t01.flac
     7:21.30       77863004 B   ---   --   ---xx   flac  0.6367  gd1981-10-04s2t02.flac
    12:33.36      132913916 B   ---   --   ---xx   flac  0.6231  gd1981-10-04s2t03.flac
    11:43.35      124091564 B   ---   --   ---xx   flac  0.6171  gd1981-10-04s2t04.flac
     7:54.29       83681852 B   ---   --   ---xx   flac  0.5798  gd1981-10-04s2t05.flac
     7:49.59       82870412 B   ---   --   ---xx   flac  0.6188  gd1981-10-04s2t06.flac
     3:58.52       42105548 B   ---   --   ---xx   flac  0.5995  gd1981-10-04s2t07.flac
     8:20.65       88352924 B   ---   --   ---xx   flac  0.6247  gd1981-10-04s2t08.flac
     8:38.67       91532828 B   ---   --   ---xx   flac  0.5964  gd1981-10-04s2t09.flac
     2:47.07       29475308 B   ---   --   ---xx   flac  0.6317  gd1981-10-04s2t10.flac
     7:45.59       82164812 B   ---   --   ---xx   flac  0.6459  gd1981-10-04s2t11.flac
     9:47.66      103702076 B   ---   --   ---xx   flac  0.6022  gd1981-10-04s2t12.flac
     8:24.04       88915052 B   ---   --   ---xx   flac  0.6136  gd1981-10-04s2t13.flac
     3:16.53       34699100 B   ---   --   ---xx   flac  0.6070  gd1981-10-04s2t14.flac
   183:41.49     1944220748 B                            0.6151  (25 files)

No errors occured.
Show Checksums
ffp
gd1981-10-04s1t01.flac:cc43c284e3b7e5dd59b493e41f8f5e02
gd1981-10-04s1t02.flac:96aa7dedb606bf45f14b2265558f745f
gd1981-10-04s1t03.flac:6181c9eff05753176502dccf7eb22d79
gd1981-10-04s1t04.flac:322fda63c0d3b6f9878fecc25b441ebe
gd1981-10-04s1t05.flac:35ecae5b2df51a77fe4edbb11b4a972b
gd1981-10-04s1t06.flac:5542715403768da97461b6359165bccb
gd1981-10-04s1t07.flac:08a47276e0b347c884e680e0d0df0f3b
gd1981-10-04s1t08.flac:24dd505c8ea967fd8b201c1ce461a011
gd1981-10-04s1t09.flac:e3ba7b41be01b04671e6f3e84773d360
gd1981-10-04s1t10.flac:e64ad9f71fe90df390b652806dd0e666
gd1981-10-04s1t11.flac:3f52f529ce376a48d67b7f016b642041
gd1981-10-04s2t01.flac:b0636f72b77b31fd698ce06ad9c4b7ec
gd1981-10-04s2t02.flac:2a4dd20994dea3abe3b5b454f74954c9
gd1981-10-04s2t03.flac:d5342d4932efd8dcfed8abc5921f6aa3
gd1981-10-04s2t04.flac:2df6ed05f351cf379a9f602433135a78
gd1981-10-04s2t05.flac:6d90a3e05b17018184c4435748cf9674
gd1981-10-04s2t06.flac:9c4e547df0ca8565db0b9b6434cc12b2
gd1981-10-04s2t07.flac:b51f235875b112ba754d14522fe157d8
gd1981-10-04s2t08.flac:a64c2ecee11e89d5b30634dc7f228f47
gd1981-10-04s2t09.flac:62acd42fa798c46b0702f48d02e6bb2a
gd1981-10-04s2t10.flac:073bee8acfa3e1c3ad8fe2e7acc9191b
gd1981-10-04s2t11.flac:a1f6e942d09cbe72c63f53084c194767
gd1981-10-04s2t12.flac:4cd39df1613307a917a3ba2519eae0ee
gd1981-10-04s2t13.flac:3f5d4d4b7536646000584f638f1c4bd6
gd1981-10-04s2t14.flac:4012be92916f3032ac17dbd9ab66719d
flac-md5
b59ddb1e36dfcc4cdf387b583975edf7 *gd1981-10-04s1t01.flac
b47c615188a706f45b64c34d328c8f61 *gd1981-10-04s1t02.flac
3a9d1fac171b43e033b88049344b6373 *gd1981-10-04s1t03.flac
5b891719f953661f1728d44fd106a8c2 *gd1981-10-04s1t04.flac
b69ec18c7dc849fa3ae3b7e380b97753 *gd1981-10-04s1t05.flac
23c230c657743b0b1823944e5a394e9d *gd1981-10-04s1t06.flac
f684279f25072f0f983c14962c6b53f8 *gd1981-10-04s1t07.flac
42778eaa8e6b42473504b7001f1c63c7 *gd1981-10-04s1t08.flac
3164cb4d95d7d86e0a700c09f1fb39d8 *gd1981-10-04s1t09.flac
d7a5a459181f4c7f4c07b44e0728102e *gd1981-10-04s1t10.flac
468b8cd2d2d39fd546e3c419e4a3e73c *gd1981-10-04s1t11.flac
06ae13a217f26e2793259a08d46f247f *gd1981-10-04s2t01.flac
6e8240047246944af4ac7574fde60bac *gd1981-10-04s2t02.flac
b6fd42be79920dc000ac05f4c60ec05d *gd1981-10-04s2t03.flac
2ceb8d06e4844b41ffdc0c627b5dec69 *gd1981-10-04s2t04.flac
e91897dc818ce5e20ef0c266be82ea02 *gd1981-10-04s2t05.flac
c07ee09cbfe7981e9b5dd861cca0e428 *gd1981-10-04s2t06.flac
edf4615425af51727cb47da2cf06ae5c *gd1981-10-04s2t07.flac
601d24234036543e7302692e1954375d *gd1981-10-04s2t08.flac
6c158003884896076311ea67f3f6610b *gd1981-10-04s2t09.flac
d99efb80d38f96daccd6395656ea73b5 *gd1981-10-04s2t10.flac
94ee45930bcc25e481a5c8066d2fdd7a *gd1981-10-04s2t11.flac
199554cbad8175e4530a0bc97f6b0d50 *gd1981-10-04s2t12.flac
c35c5483d101e353716b4f998a5eaf49 *gd1981-10-04s2t13.flac
0c8db25dc7c1e9fcad69f8b47071b6ad *gd1981-10-04s2t14.flac

Comments
Add Comment
Other Sources (comments)
Source 1:... (2) flac24; Partial... (0) flac16; Sbd > CM? >... (0)
Date User Comment