Browse Collections Artists Sources   Search Dates

Add Show    List Management    Help


Greensky Bluegrass 01/20/12
Middle East Upstairs, Cambridge, MA
Comments Add Comment    Source Collectors    Add to Collection    Add to Want List    History
Source # 118357 Other Sources
Entered by
Checksums gsbg2012-01-20.flac16.md5 , gsbg2012-01-20.flac16.ffp
Disc Counts 0 / 0
Media Size
Date Circulated
Date Added

01/22/2012
Source Summary Source: Schoeps CCM4V'S(din)>Lunatec V2>Benchmark AD2K> Sound Devices 722 (24/48)
FOB/DFC/KFC/ZFC/AARP 20' From Stage, 7' High
DSP: Sound Devices 722>Sound Forge 9.0>CD Wave>flac(16)
Recorded By: Z-Man 
  Archive
Source Information - Download Text | Download Zip
Greensky Bluegrass
Middle East Upstairs
Cambridge, Massachusetts
1/20/2012

Source: Schoeps CCM4V'S(din)>Lunatec V2>Benchmark AD2K>
Sound Devices 722 (24/48)
FOB/DFC/KFC/ZFC/AARP 20' From Stage, 7' High
DSP: Sound Devices 722>Sound Forge 9.0>CD Wave>flac(16)
Recorded By: Z-Man
Seeded By: Z-Man

Disc I 1st Set

01 Don't Let Your Deal Go Down
02 Lose My Way
03 Freeborn Man
04 No Idea >
05 Bringin' In The Georgia Mail
06 Don't Lie
07 Road To Nowhere
08 Old Barns
09 Paul Banter
10 Kerosene

Disc II 2nd Set

01 Tied Down
02 All Four
03 Atlantic City
04 Anders Banter
05 Climb A Mountain
06 Banter
07 What's Left Of The Night
08 Paul And Anders Banter
09 Just To Lie >
10 Train Junkie
Encore:
11 Paul Banter
12 Shout >  
13 Gold Rush

* This Was A Sold Out Show!

Flac Fingerprint

gsbg2012-01-20d01t01.flac:5d305c719cbccec00093a57a35ea1f0c
gsbg2012-01-20d01t02.flac:f18ca75e8aa856747fadeaa4dc392baf
gsbg2012-01-20d01t03.flac:df7e8c7b90b0b16185941a7d73932af5
gsbg2012-01-20d01t04.flac:64eb087af70446d8569d76a67d82b9d3
gsbg2012-01-20d01t05.flac:7e961fc5d3b640e49516d4d5fae8da78
gsbg2012-01-20d01t06.flac:00efbb123ccd0445e7f7baa9e6b5c11c
gsbg2012-01-20d01t07.flac:ccd8549d85739c2c2cd1bfcb557ce50b
gsbg2012-01-20d01t08.flac:4b0fbe23e4d365667fa5b0e58c3fa461
gsbg2012-01-20d01t09.flac:a4d628415d8b7a01eb7c40942aa98a68
gsbg2012-01-20d01t10.flac:c5490d6b5d7ca3edec08c8116aa337ac
gsbg2012-01-20d02t01.flac:d7dff5fb51a84eccb8f158ec388312b5
gsbg2012-01-20d02t02.flac:e35720dd4559f2db87846d996eacad10
gsbg2012-01-20d02t03.flac:ff28bf380e8ca5094059ae6cb16508cd
gsbg2012-01-20d02t04.flac:9ffa27fe359cab3acb53668cd035aa05
gsbg2012-01-20d02t05.flac:ccc59021420f453550c6b59243a03571
gsbg2012-01-20d02t06.flac:28765f65a915b2dafb20b05649386a89
gsbg2012-01-20d02t07.flac:43b4a9f4b168b87e44a9422b55b64aac
gsbg2012-01-20d02t08.flac:6499938dbaed28448b9dae4610640e49
gsbg2012-01-20d02t09.flac:76c063f298d0a675767bf3994a0b2ad6
gsbg2012-01-20d02t10.flac:9aba584b97c01d139fd15602cbecc1ea
gsbg2012-01-20d02t11.flac:df9fb600f08243ba10d672ffeeb22e9c
gsbg2012-01-20d02t12.flac:cd7cce8228a79dad8c6149aef5338a0d
gsbg2012-01-20d02t13.flac:b01168a20dece44a184875e5e7a8afb0

Shntool

    length     expanded size    cdr  WAVE problems  fmt   ratio  filename
     3:46.67       40024028 B   ---   --   ---xx   flac  0.4727  gsbg2012-01-20d01t01.flac
     9:45.51      103313996 B   ---   --   ---xx   flac  0.4333  gsbg2012-01-20d01t02.flac
    18:24.02      194750348 B   ---   --   ---xx   flac  0.4676  gsbg2012-01-20d01t03.flac
     5:16.61       55885916 B   ---   --   ---xx   flac  0.4514  gsbg2012-01-20d01t04.flac
     4:29.27       47515148 B   ---   --   ---xx   flac  0.4499  gsbg2012-01-20d01t05.flac
     9:59.16      105701276 B   ---   --   ---xx   flac  0.4838  gsbg2012-01-20d01t06.flac
     4:33.66       48312476 B   ---   --   ---xx   flac  0.4747  gsbg2012-01-20d01t07.flac
     4:36.47       48796988 B   ---   --   ---xx   flac  0.4652  gsbg2012-01-20d01t08.flac
     1:03.66       11268476 B   ---   --   ---xx   flac  0.4312  gsbg2012-01-20d01t09.flac
     6:09.16       65129276 B   ---   --   ---xx   flac  0.4749  gsbg2012-01-20d01t10.flac
     3:39.23       38685740 B   ---   --   ---xx   flac  0.4587  gsbg2012-01-20d02t01.flac
    19:27.03      205865900 B   ---   --   ---xx   flac  0.4458  gsbg2012-01-20d02t02.flac
     5:14.56       55521356 B   ---   --   ---xx   flac  0.4829  gsbg2012-01-20d02t03.flac
     0:57.37       10141868 B   ---   --   ---xx   flac  0.4112  gsbg2012-01-20d02t04.flac
     4:21.10       46063964 B   ---   --   ---xx   flac  0.4871  gsbg2012-01-20d02t05.flac
     1:36.16       16972076 B   ---   --   ---xx   flac  0.4125  gsbg2012-01-20d02t06.flac
     9:21.67       99118028 B   ---   --   ---xx   flac  0.4566  gsbg2012-01-20d02t07.flac
     1:24.68       14977580 B   ---   --   ---xx   flac  0.4180  gsbg2012-01-20d02t08.flac
     4:20.60       46005164 B   ---   --   ---xx   flac  0.4539  gsbg2012-01-20d02t09.flac
    12:27.16      131808476 B   ---   --   ---xx   flac  0.4662  gsbg2012-01-20d02t10.flac
     2:41.43       28501580 B   ---   --   ---xx   flac  0.4007  gsbg2012-01-20d02t11.flac
     5:28.54       57986252 B   ---   --   ---xx   flac  0.4980  gsbg2012-01-20d02t12.flac
     6:38.55       70336604 B   ---   --   ---xx   flac  0.5118  gsbg2012-01-20d02t13.flac
   145:45.27     1542682516 B                            0.4628  (23 files)
Show Checksums
gsbg2012-01-20.flac16.md5
586f846b28f287dc892b40d58b037616 *gsbg2012-01-20d01t01.flac
c484b1111ee0b723c010b3366cf4f160 *gsbg2012-01-20d01t02.flac
8fb53d4e302e51011ac19e82ab88cdd4 *gsbg2012-01-20d01t03.flac
c186dc231472ae81dd4c3791bc15219f *gsbg2012-01-20d01t04.flac
da2edc413e181546e03262d649fb440b *gsbg2012-01-20d01t05.flac
859ede510bf333c30340917ae38bc3c3 *gsbg2012-01-20d01t06.flac
5f9105118ae698958ed4b0e64e3a7cd6 *gsbg2012-01-20d01t07.flac
1845c7144b1902a174b93ee8762b478d *gsbg2012-01-20d01t08.flac
523fadae9df4f9321718fc57c4faab22 *gsbg2012-01-20d01t09.flac
15f3f04818e00ba98855f2a8db12828b *gsbg2012-01-20d01t10.flac
0595fa780aff2d113f0a8132fd34c35d *gsbg2012-01-20d02t01.flac
5e1f99a29d2aaaeaf50ea1bc24b00ec6 *gsbg2012-01-20d02t02.flac
35fda7cdd033da8b8969189dabbe3272 *gsbg2012-01-20d02t03.flac
2524e04ad1aa47e75362608eec9b39f0 *gsbg2012-01-20d02t04.flac
f75eade4843a8539b9f96e042997e7aa *gsbg2012-01-20d02t05.flac
af5055bcf6ba303a1ac1ba58068ab603 *gsbg2012-01-20d02t06.flac
906ccd0906ca7cd70c94c8f5be75e432 *gsbg2012-01-20d02t07.flac
37308a1bd9cf5a42daf18969f1a17fe0 *gsbg2012-01-20d02t08.flac
a7c453c1293e4dd631ffb61285a6dc62 *gsbg2012-01-20d02t09.flac
2a4211afc83dab50205fa0f84ee9a867 *gsbg2012-01-20d02t10.flac
b497547f71ef39ce5a18303010fca16b *gsbg2012-01-20d02t11.flac
a8d575fa72435b2942dee14d44c350a5 *gsbg2012-01-20d02t12.flac
e795e42a0bd2eefb8c17e685b0cbd59f *gsbg2012-01-20d02t13.flac
gsbg2012-01-20.flac16.ffp
gsbg2012-01-20d01t01.flac:5d305c719cbccec00093a57a35ea1f0c
gsbg2012-01-20d01t02.flac:f18ca75e8aa856747fadeaa4dc392baf
gsbg2012-01-20d01t03.flac:df7e8c7b90b0b16185941a7d73932af5
gsbg2012-01-20d01t04.flac:64eb087af70446d8569d76a67d82b9d3
gsbg2012-01-20d01t05.flac:7e961fc5d3b640e49516d4d5fae8da78
gsbg2012-01-20d01t06.flac:00efbb123ccd0445e7f7baa9e6b5c11c
gsbg2012-01-20d01t07.flac:ccd8549d85739c2c2cd1bfcb557ce50b
gsbg2012-01-20d01t08.flac:4b0fbe23e4d365667fa5b0e58c3fa461
gsbg2012-01-20d01t09.flac:a4d628415d8b7a01eb7c40942aa98a68
gsbg2012-01-20d01t10.flac:c5490d6b5d7ca3edec08c8116aa337ac
gsbg2012-01-20d02t01.flac:d7dff5fb51a84eccb8f158ec388312b5
gsbg2012-01-20d02t02.flac:e35720dd4559f2db87846d996eacad10
gsbg2012-01-20d02t03.flac:ff28bf380e8ca5094059ae6cb16508cd
gsbg2012-01-20d02t04.flac:9ffa27fe359cab3acb53668cd035aa05
gsbg2012-01-20d02t05.flac:ccc59021420f453550c6b59243a03571
gsbg2012-01-20d02t06.flac:28765f65a915b2dafb20b05649386a89
gsbg2012-01-20d02t07.flac:43b4a9f4b168b87e44a9422b55b64aac
gsbg2012-01-20d02t08.flac:6499938dbaed28448b9dae4610640e49
gsbg2012-01-20d02t09.flac:76c063f298d0a675767bf3994a0b2ad6
gsbg2012-01-20d02t10.flac:9aba584b97c01d139fd15602cbecc1ea
gsbg2012-01-20d02t11.flac:df9fb600f08243ba10d672ffeeb22e9c
gsbg2012-01-20d02t12.flac:cd7cce8228a79dad8c6149aef5338a0d
gsbg2012-01-20d02t13.flac:b01168a20dece44a184875e5e7a8afb0

Comments
Add Comment
Other Sources (comments)
DPA 4011 > V3 Digital > R44... (0)
Date User Comment