Browse Collections Artists Sources   Search Dates

Add Show    List Management    Help


Zero 01/31/98
Maritime Hall, San Francisco, CA
Comments Add Comment    Source Collectors    Add to Collection    Add to Want List    History
Source # 118637 Other Sources
Entered by
Checksums zero1998-01-31.md5
Disc Counts 0 / 0
Media Size
Date Circulated
Date Added

02/02/2012
Source Summary (Stage) Senn 421>Dat>CDR 
  Archive
Source Information - Download Text | Download Zip
Zero
Maritime Hall, San Francisco, Ca
01-31-98


(Stage) Senn 421>Dat>CDR

Set 1:

d1t01 - Golden Road
d1t02 - Pits Of Thunder
d1t03 - Friday's Child
d1t04 - Sun, Sun, Sun->
d1t05 - Can't Sit Down

Set 2:

d2t01 - It's Up To You
d2t02 - Catalina
d2t03 - Listen Here
d2t04 - Band Intros
d2t05 - The Weight
d2t06 - Out In The Woods
d3t01 - Use Me Up

Encore:

d3t02 - Mercury Blues


SHNTOOL OUTPUT:

    length     expanded size   cdr  WAVE problems filename
    14:54.35      157783964    ---   --   -----   zero1998-01-31d1t01.wav
    14:40.65      155384924    ---   --   -----   zero1998-01-31d1t02.wav
    11:33.70      122409884    ---   --   -----   zero1998-01-31d1t03.wav
    14:29.20      153338684    ---   --   -----   zero1998-01-31d1t04.wav
    14:25.06      152600156    ---   --   -----   zero1998-01-31d1t05.wav
    15:13.00      161053244    ---   --   -----   zero1998-01-31d2t01.wav
    12:11.20      128995484    ---   --   -----   zero1998-01-31d2t02.wav
    12:01.70      127349084    ---   --   -----   zero1998-01-31d2t03.wav
     1:35.25       16816844    ---   --   -----   zero1998-01-31d2t04.wav
    11:50.65      125396924    ---   --   -----   zero1998-01-31d2t05.wav
    15:46.21      166923836    ---   --   -----   zero1998-01-31d2t06.wav
    15:06.25      159877244    ---   --   -----   zero1998-01-31d3t01.wav
    10:28.40      110873324    ---   --   -----   zero1998-01-31d3t02.wav
   164:17.12     1738803596 B                     (totals for 13 files, 1.0000 overall compression ratio)
Show Checksums
zero1998-01-31.md5
cd513ea80e1af61a53d9dbe83b02e620 *zero1998-01-31d1t01.shn
e51692b4afc7be4b02fc08df847ddc77 *zero1998-01-31d1t02.shn
9de5314a99a810277cb6a2ea06991400 *zero1998-01-31d1t03.shn
3956f28ee7c29c89c18acb0dbe496c7a *zero1998-01-31d1t04.shn
22bd3cec68a2ccbd044380bbea08bc7b *zero1998-01-31d1t05.shn
99de4273ed79f6b710bf9406edd02b40 *zero1998-01-31d2t01.shn
3f81fd0c4128f91e003208507c7e9520 *zero1998-01-31d2t02.shn
22d8e6fcb821dd4a39cedef7c4c25737 *zero1998-01-31d2t03.shn
01d43c82369ab78feaf6669b7cfb2ede *zero1998-01-31d2t04.shn
8f17e9cb98a27b2eb5efe6321336befe *zero1998-01-31d2t05.shn
646e3b070c5e430aa9462ee71affeee1 *zero1998-01-31d2t06.shn
688803f1e2d876c1b37dc1c3c0fe0ed1 *zero1998-01-31d3t01.shn
9ac41d154c7282b8b4888ed4ec33df18 *zero1998-01-31d3t02.shn


Comments
Add Comment
Other Sources (comments)
Onstage AKG C61 > DA-P1... (0)
Date User Comment