Browse Collections Artists Sources   Search Dates

Add Show    List Management    Help


Ratdog 07/03/96
Pine Knob Music Theater, Clarkston, MI
Comments Add Comment    Source Collectors    Add to Collection    Add to Want List    History
Source # 118745 Other Sources
Entered by ziko
Checksums ffp , md5
Disc Counts 0 / 0
Media Size Compressed: 863.98 MB (905946328 bytes)
Date Circulated
Date Added
02/07/2012
02/06/2012
Source Summary Source: Audience recording > Nak 300's (with cp4 caps) > Sony TC-D5 > mac > ?? > cdr Recorded by Bob Stephen
Lineage: cdr > Sony D-192CK > Edirol R-09HR > wav 24/48 > Adobe Audition 1.5 > Wavelab 6 (with iZotope Ozone 5 Advanced) > iZotope RX 2 Advanced > wav 16/44.1 > CD Wave > TLH > Flac 16 
Source Information - Download Text | Download Zip
Ratdog
Pine Knob Music Center,
Clarkston, MI
07/03/1996

Source: Audience recording > Nak 300's (with cp4 caps) > Sony TC-D5 > mac > ?? > cdr
            Recorded by Bob Stephen
Lineage: cdr > Sony D-192CK > Edirol R-09HR > wav 24/48 > Adobe Audition 1.5 >
            Wavelab 6 (with iZotope Ozone 5 Advanced) > iZotope RX 2 Advanced >
            wav 16/44.1 > CD Wave > TLH > Flac 16  


01   Good Morning Little Schoolgirl >
02   Howlin' For My Baby
03   Youngblood
04   Eternity
05   Juke
06   It's All Over Now (1)
07   Looks Like Rain (1)
08   The Winners >
09   Easy to Slip > Supplication > Easy To Slip
10   Bass solo >
11   Turn On Your Love Light (2)
12   Tanqueray (3)
13   Low Spark Of High Heeled Boys (1) (*) (3) (4)
14   All Along The Watchtower (5)


Bob Weir - guitar, vocals
Rob Wasserman - upright bass
Matthew Kelly - guitar, harmonica, vocals
Jay Lane - drums
Johnnie Johnson - piano, vocals

(1) with Bruce Hornsby - piano (1), vocals (*)
(2) with Steve Berlin - saxophone, David Hidalgo - guitar, brass from Bruce Hornsby's band
(3) David Hidalgo - guitar
(4) other guests ?
(5) all star jam with Jorma Kaukonen, Jack Cassidy, most of Los Lobos and Bruce Hornsby


Notes:

- Tape flip after "Looks Like Rain" crossfaded
- Tape flip in "Low Spark" patched with:

   audience recording: audio-technica AT813 microphones > Marantz PMD430 (metal tape)
   (dbx noise reduction) > JVC TD-W709 (metal tape) (dolby C) (equalized using TEAC EQA-5) >
   wav files > shn (mkw Audio Compression Tool 0.97 BETA 1)
   Taper:  Mike Hayes

-  Eq'd to bring up the bottom and mid range.


Comments:

Part of the Furthur Festival Tour.

This is a killer version of "Eternity"

Many thanks to Bob for taping and John Bleich for transferring the cdr.


edited and mastered
SIRMick
February 2012


shntool output:

    length     expanded size    cdr  WAVE problems  fmt   ratio  filename
     4:12.67       44610428 B   ---   --   ---xx   flac  0.4810  rd1996-07-03t01.flac
     5:02.33       53350460 B   ---   --   ---xx   flac  0.4823  rd1996-07-03t02.flac
     3:36.35       38184764 B   ---   --   ---xx   flac  0.4904  rd1996-07-03t03.flac
    11:14.29      118961852 B   ---   --   ---xx   flac  0.4830  rd1996-07-03t04.flac
     2:41.14       28433372 B   ---   --   ---xx   flac  0.5090  rd1996-07-03t05.flac
     4:48.09       50824412 B   ---   --   ---xx   flac  0.4987  rd1996-07-03t06.flac
     8:24.49       89020892 B   ---   --   ---xx   flac  0.5020  rd1996-07-03t07.flac
     3:48.20       40266284 B   ---   --   ---xx   flac  0.4960  rd1996-07-03t08.flac
    10:04.34      106625612 B   ---   --   ---xx   flac  0.4938  rd1996-07-03t09.flac
     5:36.22       59322188 B   ---   --   ---xx   flac  0.4548  rd1996-07-03t10.flac
     8:25.73       89253740 B   ---   --   ---xx   flac  0.5225  rd1996-07-03t11.flac
     4:46.19       50495132 B   ---   --   ---xx   flac  0.5108  rd1996-07-03t12.flac
     6:53.71       73020236 B   ---   --   ---xx   flac  0.5072  rd1996-07-03t13.flac
     6:00.31       63576956 B   ---   --   ---xx   flac  0.5111  rd1996-07-03t14.flac
    85:35.56      905946328 B                            0.4961  (14 files)

flac fingerprints:

rd1996-07-03t01.flac:82f5e72fc7140d450d1ae3087071d92d
rd1996-07-03t02.flac:bfd8aefb8d386ba45cb7e7d61852d4ef
rd1996-07-03t03.flac:a901fce99ba3090ebe53fdeaeddb3158
rd1996-07-03t04.flac:693760373bdea79935bc358be49f3452
rd1996-07-03t05.flac:2eb2e9c53dbdcfe7babf5f16f655cdd7
rd1996-07-03t06.flac:b4384c4359349a27c365bdd50daa52c7
rd1996-07-03t07.flac:677721d12de165876c971d25119185e4
rd1996-07-03t08.flac:255503a289ebcaced0c80731ad9b9ac2
rd1996-07-03t09.flac:f271aade8034343735a693af41212927
rd1996-07-03t10.flac:c0ec12f2fdfd18bff23394033151a13d
rd1996-07-03t11.flac:7c1d415e7be052acaa4563a6c07cf2ce
rd1996-07-03t12.flac:6aeb1c926662f3e780b0ccb7ba49a292
rd1996-07-03t13.flac:83267edc2092a06adc8177e7d6a2d4f6
rd1996-07-03t14.flac:2935600cdded69cfb0265a01080a417d
Show Checksums
ffp
rd1996-07-03t01.flac:82f5e72fc7140d450d1ae3087071d92d
rd1996-07-03t02.flac:bfd8aefb8d386ba45cb7e7d61852d4ef
rd1996-07-03t03.flac:a901fce99ba3090ebe53fdeaeddb3158
rd1996-07-03t04.flac:693760373bdea79935bc358be49f3452
rd1996-07-03t05.flac:2eb2e9c53dbdcfe7babf5f16f655cdd7
rd1996-07-03t06.flac:b4384c4359349a27c365bdd50daa52c7
rd1996-07-03t07.flac:677721d12de165876c971d25119185e4
rd1996-07-03t08.flac:255503a289ebcaced0c80731ad9b9ac2
rd1996-07-03t09.flac:f271aade8034343735a693af41212927
rd1996-07-03t10.flac:c0ec12f2fdfd18bff23394033151a13d
rd1996-07-03t11.flac:7c1d415e7be052acaa4563a6c07cf2ce
rd1996-07-03t12.flac:6aeb1c926662f3e780b0ccb7ba49a292
rd1996-07-03t13.flac:83267edc2092a06adc8177e7d6a2d4f6
rd1996-07-03t14.flac:2935600cdded69cfb0265a01080a417d
md5
5051c136e4af801a4bffaf685b27b044 *rd1996-07-03t01.flac
aed4fe7718843410f5818b3885a9a6ab *rd1996-07-03t02.flac
672b19a4718b6986ba44c7a62d42e7c6 *rd1996-07-03t03.flac
ac4266cd9c256fc72916192a911ef82e *rd1996-07-03t04.flac
f63b2ee01d349e5480247832c660dc2b *rd1996-07-03t05.flac
d6b7933fa230a52c74d96f9a5176666c *rd1996-07-03t06.flac
44644b2fb9f716143201f57b0964f536 *rd1996-07-03t07.flac
2b9f54896be89470c2f5beabad31d224 *rd1996-07-03t08.flac
6bf7d760a5d18790156e52cc7f6e2ac6 *rd1996-07-03t09.flac
f21ef38ce72438ef3001409a5fe480de *rd1996-07-03t10.flac
663f8171e3fa4017de3dfcf7eb388a67 *rd1996-07-03t11.flac
cdf9d46506b83201e5eb3849e2221a7d *rd1996-07-03t12.flac
fcc8bb99f854dda7f8095cedaabe870e *rd1996-07-03t13.flac
67bdc68b5f5cb0cda69fcaf6c7117903 *rd1996-07-03t14.flac

Comments
Add Comment
Other Sources (comments)
Source: audience... (0) flac16/44.1khz ... (0)
Date User Comment