Browse Collections Artists Sources   Search Dates

Add Show    List Management    Help


Grateful Dead 05/09/81
Nassau Veterans Memorial Coliseum, Uniondale, NY
Comments Add Comment    Source Collectors    Add to Collection    Add to Want List    History
Source # 118878 Other Sources
Entered by Matt Vernon
Checksums flac-md5 , ffp
Disc Counts 2 / 3
Media Size Compressed: 0.99 GB (1058629256 bytes)
Date Circulated
Date Added
02/12/2012
02/12/2012
Source Summary flac16; Matrix of SBD (shnid=33930) and AUDs (shnid=17699 & 32883) by Hunter Seamons using Final Cut Pro (SHN > AIFF > Final Cut > AIFF CD tracking via Audacity > FLAC16 via xACT w/meta-tagging). This is a pitch corrected version of shnid=92246. 
  Archive
Source Information - Download Text | Download Zip
Grateful Dead
Nassau Coliseum
Uniondale, NY
May 9, 1981

Jerry Garcia - Lead Guitar, Vocals
Mickey Hart - Drums
Bill Kreutzmann - Drums
Phil Lesh - Electric Bass, Vocals
Brent Mydland - Keyboards, Vocals
Bob Weir - Rhythm Guitar, Vocals



*Matrix*


-----------------------------------------------------------------
SBD (shnid=33930):

Recording Info:
SBD -> Cassette Master -> Dat

Transfer Info:
Dat (Sony R500) -> SEK'D Prodif Plus -> Samplitude Professional v8.01 -> FLAC
(3 Discs Audio / 2 Discs FLAC)

All Transfers and Mastering By Charlie Miller
[email protected]
March 14, 2006

-----------------------------------------------------------------
AUD 1 (shnid=17699):

Source: NAK-700's > SONY TC-D5M  Dolby On taped by Barry Glassberg FOB
Lineage: AUDMC > Tascam 122MKIII > Tascam DA-40 > DAT by Mark Cohen
DAT > CD by John Steinthal: Sony PCM-R500 > Dell Precision (via delta dio2496 card) >
Soundforge (normalize/cross fades) > CDWAV > Prassi Primo CD plus: (layout tracks and burn) > CD
CD > EAC(secure) > mkwact > SHN(seekable) by [email protected]

Recorded By Barry Glassberg

[5/30/03]


AUD 2 (shnid=32883):

Recording Info:
(FOB) Sennheiser 421 + PZM -> Cassette Master (Nak 500) -> Dat (48k)

Transfer Info:
Dat (Sony R500) -> SEK'D Prodif Plus -> Samplitude Professional v8.01 -> FLAC
(3 Discs Audio / 2 Discs FLAC)

Recorded By Rob Eaton

All Transfers and Mastering By Charlie Miller
[email protected]
March 15, 2006

-----------------------------------------------------------------
Thanks to Charlie Miller for the sources,  
to Rob Eaton and Barry Glassberg for recoding this fine, fine show,
and to Dr. Rob Bertrando for help with pitch correction.

Matrix by Hunter Seamons using Final Cut Pro (SHN & FLAC>AIFF>Final Cut>WAV>FLAC)
June 10, 2008

Pitch correction, amplification, and meta-tagging on February 12, 2012.



Set I
-----
d1t01 - Mississippi Half-Step Uptown Toodeloo ->
d1t02 - Franklin's Tower ->
d1t03 - Feel Like A Stranger
d1t04 - Bird Song
d1t05 - Little Red Rooster
d1t06 - Candyman
d1t07 - Mama Tried ->
d1t08 - Mexicali Blues
d1t09 - Looks Like Rain ->
d2t01 - China Cat Sunflower ->
d2t02 - I Know You Rider

Set II
-----
d2t03 - Lost Sailor ->
d2t04 - Saint Of Circumstance ->
d2t05 - Ship Of Fools
d2t06 - Estimated Prophet ->
d2t07 - Eyes Of The World ->
d2t08 - Drums ->
d3t01 - Space ->
d3t02 - Truckin' ->
d3t03 - Black Peter ->
d3t04 - Around And Around ->
d3t05 - One More Saturday Night

Encore
-----
d3t06 - Brokedown Palace



Notes:

1) While not the most ideal AUD on its own, Glassberg's source complemented the SBD best (consistent with the 05-08-81 matrix), and Eaton's AUD is used only for patches in the SBD. In these cases, only Eaton's source plays.

2) There was more tape hiss in the SBD source, it seems, than the previous night, especially during the first two minutes of Half-Step.

3) After the cut in the SBD during Eyes, the overall quality of the SBD is slightly diminished. One glaring difference is that not all of the drum pieces are as fully present. I noticed the high-hat (or one of them) is not present in the SBD any more, but is very audible in the AUD, so the AUD helps fill all instrumentation that is lacking in the SBD. Weird stuff.

4) As always - enjoy!


New notes on 2/12/12:

On July 12, 2008, at 4:45 PM, Dr. Rob Bertrando informed me that the speed of this matrix (or SBD) was running about 20 cents fast (1.2%). On February 12, 2012, I took Bertrando seriously and made the appropriate adjustment.




    length     expanded size    cdr  WAVE problems  fmt   ratio  filename
     7:59.58       84632060 B   ---   --   ---xx  gd81-05-09d1t01.flac
    10:11.65      107933324 B   ---   --   ---xx  gd81-05-09d1t02.flac
     9:02.03       95615900 B   ---   --   ---xx  gd81-05-09d1t03.flac
     9:57.24      105367292 B   ---   --   ---xx  gd81-05-09d1t04.flac
     8:56.11       94576316 B   ---   --   ---xx  gd81-05-09d1t05.flac
     6:58.68       73895180 B   ---   --   ---xx  gd81-05-09d1t06.flac
     2:27.18       25973180 B   ---   --   ---xx  gd81-05-09d1t07.flac
     5:08.57       54465308 B   ---   --   ---xx  gd81-05-09d1t08.flac
     8:23.34       88809212 B   ---   --   ---xx  gd81-05-09d1t09.flac
     6:31.55       69101804 B   ---   --   ---xx  gd81-05-09d2t01.flac
     5:39.07       59816108 B   ---   --   ---xx  gd81-05-09d2t02.flac
     7:28.59       79166012 B   ---   --   ---xx  gd81-05-09d2t03.flac
     6:52.21       72726236 B   ---   --   ---xx  gd81-05-09d2t04.flac
     9:09.47       96954188 B   ---   --   ---xx  gd81-05-09d2t05.flac
    11:52.15      125632124 B   ---   --   ---xx  gd81-05-09d2t06.flac
    14:20.61      151847516 B   ---   --   ---xx  gd81-05-09d2t07.flac
    10:03.36      106453916 B   ---   --   ---xx  gd81-05-09d2t08.flac
     4:45.54       50401052 B   ---   --   ---xx  gd81-05-09d3t01.flac
    12:00.18      127050380 B   ---   --   ---xx  gd81-05-09d3t02.flac
     9:57.49      105426092 B   ---   --   ---xx  gd81-05-09d3t03.flac
     3:56.65       41783324 B   ---   --   ---xx  gd81-05-09d3t04.flac
     4:25.59       46884812 B   ---   --   ---xx  gd81-05-09d3t05.flac
     6:44.02       71270348 B   ---   --   ---xx  gd81-05-09d3t06.flac
   182:53.61     1935781684 B                            0.5450  (23 files)
Show Checksums
flac-md5
23078363b29c35db8c768ab09e661606 *gd81-05-09d1t01.flac
b1cbea9095f5ec95335b6bb22db6f78d *gd81-05-09d1t02.flac
1a23e55db1c6c9039deb5c0dd15c26de *gd81-05-09d1t03.flac
935c6e74804883dc5c7cc56e73f52127 *gd81-05-09d1t04.flac
201e6a2cef893e7041cbbabf94f5cc7c *gd81-05-09d1t05.flac
9fcf02268adac011ed76225ef53e5b02 *gd81-05-09d1t06.flac
3569e88729d04e7a5f1b51d3c9fe7471 *gd81-05-09d1t07.flac
1674940bd0c810dc59d92897cf36d16d *gd81-05-09d1t08.flac
4dc265830a18a7485e2fcc36eefe2f96 *gd81-05-09d1t09.flac
afb4bc5756b9fe77d32e1f694f2f915e *gd81-05-09d2t01.flac
0352e7c79026ce6c10b4dbd9501d53ea *gd81-05-09d2t02.flac
89e152f477bc836522753a14bafd81d4 *gd81-05-09d2t03.flac
d42ef9f2e860491a54c855e6f0408d52 *gd81-05-09d2t04.flac
f32f8488eb808a8e8cb46e90aecbe3b4 *gd81-05-09d2t05.flac
b53d9808af6321c1c7d5313c712fb51f *gd81-05-09d2t06.flac
792dd11acbd37137d91d2befb256fe84 *gd81-05-09d2t07.flac
4f0ce51f7f1a931b1e0f5bdaa5b81061 *gd81-05-09d2t08.flac
ea3d6e9b3c4345c6048fbd66cff38c6e *gd81-05-09d3t01.flac
e41083b49097c8188ee6ee5434e12496 *gd81-05-09d3t02.flac
eddc4b38f03cd93c1d9c7a7e05600468 *gd81-05-09d3t03.flac
f73b0bec4d39dd3a55fcd4f78aab186e *gd81-05-09d3t04.flac
bedcb0ab21cb6d504952101c9e3f5c22 *gd81-05-09d3t05.flac
1aaa6a54ebc5d8d58423845bf861bf9c *gd81-05-09d3t06.flac
ffp
gd81-05-09d1t01.flac:27e9f8f8d958676f8cd480b15e34f3af
gd81-05-09d1t02.flac:df1030f2f3d3e0d6be86fb03d015409c
gd81-05-09d1t03.flac:14d3f36ce1e0a4c39f37ada20472ace7
gd81-05-09d1t04.flac:e91a3e20c65bba88abbae7a7f808eb24
gd81-05-09d1t05.flac:3cedd7c1b09b3dd6a35a32363523915f
gd81-05-09d1t06.flac:debdaf26355483c735eea989c28041c6
gd81-05-09d1t07.flac:910ff799742867cd8e938026536e5284
gd81-05-09d1t08.flac:d3dd66ca67d889d7b3bc8de4d3780aff
gd81-05-09d1t09.flac:5a822b1b76bf3119649e27df328020b8
gd81-05-09d2t01.flac:bc763122685a176adcaf89812cb5db92
gd81-05-09d2t02.flac:a4a2c0876d72f12a2fce8465c94382cd
gd81-05-09d2t03.flac:1ef7ee1970aa334600785f5fe1ab3cf1
gd81-05-09d2t04.flac:74f15925348fc61055bdde5dcfb8fced
gd81-05-09d2t05.flac:937cef46c304aae048ae5ca44e25ba70
gd81-05-09d2t06.flac:58e4a81a4c7dad5fbe957176c97e2a5e
gd81-05-09d2t07.flac:154bf1019be0ebb7156e60f0a167a67a
gd81-05-09d2t08.flac:b8f2cdedd4c9e79f0632b2603d03b44a
gd81-05-09d3t01.flac:beeff6fdd1581a712623fafc370165b5
gd81-05-09d3t02.flac:eef4a278e3e50bf2276608208b138ed0
gd81-05-09d3t03.flac:c548c92710cdb52518ea668c2211bb58
gd81-05-09d3t04.flac:4cb6499802c1ab60d43951a9babb5467
gd81-05-09d3t05.flac:0b078c8096880266ba023b2920f42a82
gd81-05-09d3t06.flac:e22f826372d29bf411152be808b0e489

Comments
Add Comment
Other Sources (comments)
Recording by Jim Wise. AUD>... (1) Recording by Barry... (2) flac16;Recording By... (0) flac16; SBD ->... (0) flac16; MATRIX MIX:... (0) flac24; Sennheiser... (0) flac16; Sennheiser... (1) flac16; source: aud... (0) flac24; source: aud... (0)
Date User Comment
02/13/2012 Wharfrat73 Updated info file.