Browse Collections Artists Sources   Search Dates

Add Show    List Management    Help


Grateful Dead 05/07/80
Barton Hall, Ithaca, NY
Comments Add Comment    Source Collectors    Add to Collection    Add to Want List    History
Source # 118940 Other Sources
Entered by Matt Vernon
Checksums orig-ffp , orig-md5 , ffp , flac-md5
Disc Counts 0 / 0
Media Size Compressed: 3.14 GB (3369587272 bytes)
Date Circulated
Date Added
02/15/2012
02/15/2012
Source Summary flac24; Recorded by Jim Wise; 2 Nakamichi CM-700s with shotguns> Sony D-5; Transfer and FLAC encoding by David Minches: Master played back on Nakamichi Dragon> Korg MR-1000(DSF [1-bit 5.6448 MHz Stereo]) Korg AudioGate > WAV [24/96] > Adobe Audition 3.0> FLAC encoding 
  Archive
Source Information - Download Text | Download Zip
Grateful Dead
May 7, 1980
Barton Hall, Cornell University
Ithica, NY

Recorded by Jim Wise; 2 Nakamichi CM-700s with shotguns> Sony D-5

Transfer and FLAC encoding by David Minches:
Master played back on Nakamichi Dragon> Korg MR-1000(DSF [1-bit 5.6448 MHz Stereo])
Korg AudioGate > WAV [24/96] > Adobe Audition 3.0> FLAC encoding

This is the 24/96 version.


--Set 1--
s1t01 - Tuning
s1t02 - Jack Straw
s1t03 - Tennessee Jed
s1t04 - Cassidy
s1t05 - Row Jimmy ->
s1t06 - El Paso
s1t07 - Easy To Love You
s1t08 - Althea
s1t09 - Feel Like a Stranger
s1t10 - Don't Ease Me In

--Set 2--
s2t01 - Tuning
s2t02 - Shakedown Street ->
s2t03 - Bertha ->
s2t04 - Playing in the Band ->
s2t05 - Terrapin Station ->
s2t06 - Drums ->
s2t07 - Space ->
s2t08 - Saint of Circumstance
s2t09 - Black Peter ->
s2t10 - Playing in the Band ->
s2t11 - Good Lovin'

--Encore--
s2t12 - Alabama Getaway


    length     expanded size    cdr  WAVE problems  fmt   ratio  filename
     1:11.071      40937018 B   cxx   --   ---xx   flac  0.6579  s01t01 - Tuning.flac
     7:07.489     246233456 B   cxx   --   ---xx   flac  0.6388  s01t02 - Jack Straw.flac
     9:22.277     323871662 B   cxx   --   ---xx   flac  0.6408  s01t03 - Tennessee Jed.flac
     5:58.817     206678870 B   cxx   --   ---xx   flac  0.6395  s01t04 - Cassidy.flac
    11:09.188     385452344 B   cxx   --   ---xx   flac  0.6379  s01t05 - Row Jimmy.flac
     5:45.899     199238066 B   cxx   --   ---xx   flac  0.6394  s01t06 - El Paso.flac
     4:25.618     152996240 B   cxx   --   ---xx   flac  0.6325  s01t07 - Easy to Love You.flac
     8:38.896     298884362 B   cxx   --   ---xx   flac  0.6402  s01t08 - Althea.flac
     8:41.594     300438470 B   cxx   --   ---xx   flac  0.6322  s01t09 - Feel Like A Stranger.flac
     3:56.159     136027346 B   cxx   --   ---xx   flac  0.6378  s01t10 - Don't Ease Me In.flac
     1:05.551      37757348 B   cxx   --   ---xx   flac  0.6502  s02t01 - Tuning.flac
    13:08.142     453970088 B   cxx   --   ---xx   flac  0.6328  s02t02 - Shakedown Street.flac
     6:24.254     221330108 B   cxx   --   ---xx   flac  0.6361  s02t03 - Bertha.flac
     9:06.028     314512298 B   cxx   --   ---xx   flac  0.6416  s02t04 - Playing in the Band.flac
    12:38.340     436803932 B   cxx   --   ---xx   flac  0.6396  s02t05 - Terrapin Station.flac
     7:13.508     249700544 B   cxx   --   ---xx   flac  0.6292  s02t06 - Drums.flac
     5:38.490     194970266 B   cxx   --   ---xx   flac  0.6446  s02t07 - Space.flac
     5:51.025     202190180 B   cxx   --   ---xx   flac  0.6328  s02t08 - Saint of Circumstance.flac
     9:21.446     323392838 B   cxx   --   ---xx   flac  0.6461  s02t09 - Black Peter.flac
     3:14.293     111912782 B   cxx   --   ---xx   flac  0.6432  s02t10 - Playing in the Band.flac
     8:06.965     280491920 B   cxx   --   ---xx   flac  0.6411  s02t11 - Good Lovin'.flac
     4:38.447     160385414 B   cxx   --   ---xx   flac  0.6374  s02t12 - Alabama Getaway.flac
   152:43.498    5278175552 B                            0.6384  (22 files)
Show Checksums
orig-ffp
s01t01 - Tuning.flac:520078a9c88cbcf832ea84b21ed0f799
s01t02 - Jack Straw.flac:b74a185207d9163188099254d0a2416f
s01t03 - Tennessee Jed.flac:3516a50741d83afbdddf8724b605b549
s01t04 - Cassidy.flac:7ef400e147b35dd0470337d4baacf210
s01t05 - Row Jimmy.flac:71021fd18b59a51ac3045b1d6732150a
s01t06 - El Paso.flac:3c77ad103613f9e53a2047b636a7e631
s01t07 - Easy to Love You.flac:430043ac53e4851d5bfa5e781200fe69
s01t08 - Althea.flac:9af8d00066a16a144de47aefc5f03f47
s01t09 - Feel Like A Stranger.flac:179b814ad61ddcdbb70b3615f4e3f0e3
s01t10 - Don't Ease Me In.flac:d03d2b07771866cc2d60e41ad412c737
s02t01 - Tuning.flac:553326e23f0cde9630bcdfa589100b84
s02t02 - Shakedown Street.flac:d966a4acded78668e909a54f43641451
s02t03 - Bertha.flac:94cc636994a116c13580275454322e84
s02t04 - Playing in the Band.flac:7b7ab8bafc3b892250fed44cd61a436b
s02t05 - Terrapin Station.flac:86102cab93e8c39c9d2af1e794f92ce9
s02t06 - Drums.flac:4b6ee542e0e45a01df70eb628ff0f364
s02t07 - Space.flac:095bd0084bb0f9a55abf8227a0c001ea
s02t08 - Saint of Circumstance.flac:9b96c137671b966142c00b2f34c697ee
s02t09 - Black Peter.flac:d2a090526cbca8f7550e5a6d251ffbf3
s02t10 - Playing in the Band.flac:e416906ac337d5d0edac86f3466f8d3e
s02t11 - Good Lovin'.flac:9c40a51bb768b2b43c2f4728813670b4
s02t12 - Alabama Getaway.flac:1f8c84e58ca4498b98a073b375ee6179
orig-md5
b10606685010bd99f2c2c522eb6a9004 *s01t01 - Tuning.flac
4e001a5839fc2dfb305bbe30a82373a5 *s01t02 - Jack Straw.flac
c56da8ca3c5fa55aa56ec9aa4195bc4c *s01t03 - Tennessee Jed.flac
554b09604ea919235d05ff78f1fa3255 *s01t04 - Cassidy.flac
57f83f9478fc36853dfaea4c9c9b2402 *s01t05 - Row Jimmy.flac
ee5513a2ef6ae3cbc42d5711a4619993 *s01t06 - El Paso.flac
e522676e29dee0a8954c78b790e37eca *s01t07 - Easy to Love You.flac
224022a683238d69c0a0a496681113b5 *s01t08 - Althea.flac
55615735a5ae6a13b6b7647311fdf50c *s01t09 - Feel Like A Stranger.flac
d1f1088a827720ee7a23bb58138aa3ce *s01t10 - Don't Ease Me In.flac
4b874c5f2ec4e855c7c41fc77757796a *s02t01 - Tuning.flac
60d7d867433d617640ea557aaf3efb3c *s02t02 - Shakedown Street.flac
838efb4fb0e1f78095b5f62cd418f1cb *s02t03 - Bertha.flac
a59046c5baa89b8dfdafa40860086757 *s02t04 - Playing in the Band.flac
136bf30f12c9f2f1b9b031e89fef4906 *s02t05 - Terrapin Station.flac
b3ec8a2238c9e8d5fa45eb798632a58e *s02t06 - Drums.flac
49a327b2d6a836a374dc5917f9de30d7 *s02t07 - Space.flac
94b22aac3cca198aaa050423d3c31824 *s02t08 - Saint of Circumstance.flac
2fe45deba17c08883910d545d90dcc5f *s02t09 - Black Peter.flac
53593888ba4668eec8d46843eca00ce8 *s02t10 - Playing in the Band.flac
63dff26eb0136fca00953fe23744af5d *s02t11 - Good Lovin'.flac
98260dba652fbb2c77e3607365f76cb9 *s02t12 - Alabama Getaway.flac
ffp
s1t01.flac:520078a9c88cbcf832ea84b21ed0f799
s1t02.flac:b74a185207d9163188099254d0a2416f
s1t03.flac:3516a50741d83afbdddf8724b605b549
s1t04.flac:7ef400e147b35dd0470337d4baacf210
s1t05.flac:71021fd18b59a51ac3045b1d6732150a
s1t06.flac:3c77ad103613f9e53a2047b636a7e631
s1t07.flac:430043ac53e4851d5bfa5e781200fe69
s1t08.flac:9af8d00066a16a144de47aefc5f03f47
s1t09.flac:179b814ad61ddcdbb70b3615f4e3f0e3
s1t10.flac:d03d2b07771866cc2d60e41ad412c737
s2t01.flac:553326e23f0cde9630bcdfa589100b84
s2t02.flac:d966a4acded78668e909a54f43641451
s2t03.flac:94cc636994a116c13580275454322e84
s2t04.flac:7b7ab8bafc3b892250fed44cd61a436b
s2t05.flac:86102cab93e8c39c9d2af1e794f92ce9
s2t06.flac:4b6ee542e0e45a01df70eb628ff0f364
s2t07.flac:095bd0084bb0f9a55abf8227a0c001ea
s2t08.flac:9b96c137671b966142c00b2f34c697ee
s2t09.flac:d2a090526cbca8f7550e5a6d251ffbf3
s2t10.flac:e416906ac337d5d0edac86f3466f8d3e
s2t11.flac:9c40a51bb768b2b43c2f4728813670b4
s2t12.flac:1f8c84e58ca4498b98a073b375ee6179
flac-md5
b10606685010bd99f2c2c522eb6a9004 *s1t01.flac
4e001a5839fc2dfb305bbe30a82373a5 *s1t02.flac
c56da8ca3c5fa55aa56ec9aa4195bc4c *s1t03.flac
554b09604ea919235d05ff78f1fa3255 *s1t04.flac
57f83f9478fc36853dfaea4c9c9b2402 *s1t05.flac
ee5513a2ef6ae3cbc42d5711a4619993 *s1t06.flac
e522676e29dee0a8954c78b790e37eca *s1t07.flac
224022a683238d69c0a0a496681113b5 *s1t08.flac
55615735a5ae6a13b6b7647311fdf50c *s1t09.flac
d1f1088a827720ee7a23bb58138aa3ce *s1t10.flac
4b874c5f2ec4e855c7c41fc77757796a *s2t01.flac
60d7d867433d617640ea557aaf3efb3c *s2t02.flac
838efb4fb0e1f78095b5f62cd418f1cb *s2t03.flac
a59046c5baa89b8dfdafa40860086757 *s2t04.flac
136bf30f12c9f2f1b9b031e89fef4906 *s2t05.flac
b3ec8a2238c9e8d5fa45eb798632a58e *s2t06.flac
49a327b2d6a836a374dc5917f9de30d7 *s2t07.flac
94b22aac3cca198aaa050423d3c31824 *s2t08.flac
2fe45deba17c08883910d545d90dcc5f *s2t09.flac
53593888ba4668eec8d46843eca00ce8 *s2t10.flac
63dff26eb0136fca00953fe23744af5d *s2t11.flac
98260dba652fbb2c77e3607365f76cb9 *s2t12.flac

Comments
Add Comment
Other Sources (comments)
Master Audience Cassette;... (0) SBD> Cassette Master> Reel>... (1) flac16; Source:... (0) flac16; Recorded By... (0)
Date User Comment