Browse Collections Artists Sources   Search Dates

Add Show    List Management    Help


Grateful Dead 10/14/80
Warfield Theater, San Francisco, CA
Comments Add Comment    Source Collectors    Add to Collection    Add to Want List    History
Source # 119320 Other Sources
Entered by Matt Vernon
Checksums ffp , flac-md5
Disc Counts 0 / 0
Media Size Compressed: 1.05 GB (1130187945 bytes)
Date Circulated
Date Added
03/03/2012
03/03/2012
Source Summary flac16; Sets 2 and 3; 2 source matrix-electric sets: Soundboard (shnid=3828): SBD> MR> DAT> CDR> EAC> SHN >TLH >flac and Audience (shnid=89632): FOB either on the floor or 1st row balcony Master Cassette > Nakamichi 700s > Sony TC D-5M 
  Archive
Source Information - Download Text | Download Zip
Grateful Dead
October 14, 1980
Warfield Theatre
San Francisco, CA

---------------------------------------------------------------------------

2 source matrix:

Soundboard (shnid=3828):
------------------------
Sets Two and Three
gd80-10-14.sbd.gardner.3828.sbeok.flac16

SBD> MR> DAT> CDR> EAC> SHN >TLH >flac

Tony Gardner
([email protected])

Thanks to Paul Bottiglio for the soundboard discs
seeded to etree 4-01

Audience (shnid=89632):
-----------------------
gd80-10-14.89632.fob-nak700.ellner-marino.gmb.sbeok.flac16

Green Mountain Brothers - FOB either on the floor or 1st row balcony
Master Cassette > Nakamichi 700s > Sony TC D-5M

1st Generation copy to Teac Reel to Reel
Transfer: Pioneer RT-701 Reel to Reel > Soundblaster Soundcard > Soundforge > CD
CD Extraction: EAC > WaveLab (edits) > TLH > FLAC level 8
Recorded and archived to Reels by Ron Ellner, the master cassettes were stolen.
Transfer: Reels to PC by Mike Marino
CD Extraction and edits by Bill Koucky
January 2008

---------------------------------------------------------------------------------

-Thank you to Paul Bottiglio and Tony Gardner for making the SBD available.
-Thank you to Ron Ellner for recording the show.
-Thank you to Mike Marino, Bill Koucky, and The Green Mountain Brothers for
making the Audience recording available.
-Thanks to germain for everything; seeding, encouragement, advice, and tutelage.

No complete soudboard circulates for the acoustic set or encores. I elected not
to include the acoustic set. The encores are solely from the GMB audience source.

Matrix by dusborne using Samplitude 11.5 Producer and Audacity 1.3 Beta
for tracking.

02-29-2012 (Happy Leap Year)
-----------------------------------------------------------------------------------------

Electric Set 2

201-d2t01 Alabama Getaway >                   4:30
202-d2t02 Greatest Story Ever Told            4:18
203-d2t03 Friend Of The Devil                 9:49
204-d2t04 Me & My Uncle >                     2:57
205-d2t05 Mexicali Blues                      4:42
206-d2t06 Candyman                            7:45
207-d2t07 Little Red Rooster                  9:05
208-d2t08 Tennessee Jed >                     8:53
209-d2t09 Let It Grow >                      11:11
210-d2t10 The Wheel >                         5:11
211-d2t11 Music Never Stopped                 7:40

-----------------------------------------------------------------------------------

Electric Set 3

301-d3t01 Scarlet Begonias >                 10:09
302-d3t02 Fire On The Mountain               10:00
303-d3t03 Estimated Prophet >                 9:38
304-d3t04 Terrapin Station >                 12:00
305-d3t05 Playin' In The Band >               7:18
306-d3t06 Drums >                             9:57
307-d4t01 Space >                             6:04
308-d4t02 I Need A Miracle >                  3:45
309-d4t03 Uncle John's Band >                 6:45
310-d4t04 Morning Dew >                      10:11
311-d4t05 Playin' Reprise >                   2:50
312-d4t06 Good Lovin'>                        8:27

Encores

313-d4t07 U.S. Blues                          7:27
314-d4t08 Brokedown Palace                    5:59
-----------------------------------------------------------------------------------------

Notes:

Mix Ratio:
SBD -0 db
Aud -7 db
** some minor mix adjustments here and there when needed **

The audience recording is fast, an adjustment of about -1.1% will put it in
standard tuning.

There is a bit of tape hiss on the SBD, I chose not to remove this.


Electric Set 2

---There is about 15 seconds of tape flucuation on the aud. at the very start of
   Alabama Getaway.

---There are flucuations in the SBD mix, especially Jerry's Guitar,
   in Alabama Getaway.

---The SBD reels seem to be paused between most songs in this set.

---Crowd noise from the end of Candyman and the very begining of Rooster is
   patched with the aud. for 59 seconds.

---6 second aud. patch at the begining of The Wheel.

Electric Set 3

---Aud. tape flip right after Fire.

---4 second aud. patch during the jam in Estimated.

---9 second SBD patch near the end of drums.

---3 second aud. patch right before the first verse in Uncle John's Band.

---Encores pitch corrected by -1.1%.


-------------------------------------------------------------------------------

Tagging notes:
Show information is embedded within the header of each flac file.
It will display on any player capable of directly playing flac files.
If converted to wav during processing, all tags will be stripped,
however audio data will remain unaffected.
If you must transcode to a lossy format, do so directly Flac > Lossy.
Use ffp to validate audio integrity.
Md5 values will change if tagging is altered.
dusborne 02-29-2012
-------------------------------------------------------------------------------------------

    length     expanded size    cdr  WAVE problems  fmt   ratio  filename
     4:30.49       47743292 B   ---   --   ---xx   flac  0.5661  gd80-10-14.d2t01.flac
     4:19.00       45687644 B   ---   --   ---xx   flac  0.5819  gd80-10-14.d2t02.flac
     9:49.58      104036060 B   ---   --   ---xx   flac  0.5582  gd80-10-14.d2t03.flac
     2:57.67       31380428 B   ---   --   ---xx   flac  0.5889  gd80-10-14.d2t04.flac
     4:42.51       49864796 B   ---   --   ---xx   flac  0.5953  gd80-10-14.d2t05.flac
     7:45.57       82160108 B   ---   --   ---xx   flac  0.5555  gd80-10-14.d2t06.flac
     9:05.36       96222716 B   ---   --   ---xx   flac  0.5887  gd80-10-14.d2t07.flac
     8:53.09       94042412 B   ---   --   ---xx   flac  0.5772  gd80-10-14.d2t08.flac
    11:11.20      118411484 B   ---   --   ---xx   flac  0.6052  gd80-10-14.d2t09.flac
     5:11.40       54954524 B   ---   --   ---xx   flac  0.5826  gd80-10-14.d2t10.flac
     7:40.08       81162860 B   ---   --   ---xx   flac  0.6023  gd80-10-14.d2t11.flac
    10:08.47      107361788 B   ---   --   ---xx   flac  0.5867  gd80-10-14.d3t01.flac
    10:00.09      105861212 B   ---   --   ---xx   flac  0.5789  gd80-10-14.d3t02.flac
     9:38.36      102043916 B   ---   --   ---xx   flac  0.5764  gd80-10-14.d3t03.flac
    12:00.65      127160924 B   ---   --   ---xx   flac  0.5577  gd80-10-14.d3t04.flac
     7:18.08       77282060 B   ---   --   ---xx   flac  0.5798  gd80-10-14.d3t05.flac
     9:57.37      105397868 B   ---   --   ---xx   flac  0.5222  gd80-10-14.d3t06.flac
     6:04.26       64270796 B   ---   --   ---xx   flac  0.4822  gd80-10-14.d4t01.flac
     3:45.28       39755900 B   ---   --   ---xx   flac  0.5763  gd80-10-14.d4t02.flac
     6:45.51       71561996 B   ---   --   ---xx   flac  0.5787  gd80-10-14.d4t03.flac
    10:11.10      107803964 B   ---   --   ---xx   flac  0.5581  gd80-10-14.d4t04.flac
     2:50.60       30129164 B   ---   --   ---xx   flac  0.5863  gd80-10-14.d4t05.flac
     8:27.30       89505404 B   ---   --   ---xx   flac  0.6023  gd80-10-14.d4t06.flac
     7:27.55       78980204 B   ---   --   ---xx   flac  0.5837  gd80-10-14.d4t07.flac
     5:59.38       63417020 B   ---   --   ---xx   flac  0.5398  gd80-10-14.d4t08.flac
   186:42.70     1976198540 B                            0.5719  (25 files)
Show Checksums
ffp
gd80-10-14.d2t01.flac:9159f8ebff05e2a46c7e5d326571e586
gd80-10-14.d2t02.flac:908fe1ac3942fc6b7b821cac44dea072
gd80-10-14.d2t03.flac:db092c013720a084140cc9d15f7d97a8
gd80-10-14.d2t04.flac:09352d2056f725d4805e5d07a14ed97e
gd80-10-14.d2t05.flac:353b1170b5fd9b44ae1d484f97668ff2
gd80-10-14.d2t06.flac:7cf8e181420d064ad0f3c4b5968f3973
gd80-10-14.d2t07.flac:3f8d0536e41f4c467e9dc77d50830570
gd80-10-14.d2t08.flac:2965300b0d2e3835ac40a605a1c364c5
gd80-10-14.d2t09.flac:d2ea076b2b61c9ae188af3bd22962ffe
gd80-10-14.d2t10.flac:425158cba454ed01b11b8c86c2264715
gd80-10-14.d2t11.flac:979d0fef8e64564cee88a212db728c7d
gd80-10-14.d3t01.flac:829ec0cad53a800ca6fbd5c1ce264dbc
gd80-10-14.d3t02.flac:439de806ea0c9e2156a07a892158b133
gd80-10-14.d3t03.flac:3faed76bec058848eee50ddbee1bc0c1
gd80-10-14.d3t04.flac:bf8d0c675a2f14374a63a513083a1822
gd80-10-14.d3t05.flac:d93ffeba5b9c38a466e04877b01235c4
gd80-10-14.d3t06.flac:b2536b246943bdc5f8e23f0a673d3c8f
gd80-10-14.d4t01.flac:ca70263036e0f4e24e24bcc840e29137
gd80-10-14.d4t02.flac:bf3af426d0df8f668b0bfda7d1ba71f4
gd80-10-14.d4t03.flac:2285bc1a702a81f2439828335bc21aab
gd80-10-14.d4t04.flac:411d5571cef883637013a38dd29bdfc2
gd80-10-14.d4t05.flac:ea19c3dff345f50e04340d54c6c073bb
gd80-10-14.d4t06.flac:f0a470c78c0d2b2a404fe0a10a3fcada
gd80-10-14.d4t07.flac:f15567885020634286fac206801617e0
gd80-10-14.d4t08.flac:779c58e0d5a53939f2af1e56957adae0
flac-md5
6dde82d8d17e1f859996e7886a4fa645 *gd80-10-14.d2t01.flac
ae5332e74d736cdba82c3328b012a453 *gd80-10-14.d2t02.flac
6502356c502061625bd7d67218c3588d *gd80-10-14.d2t03.flac
81ffc376102ce1cbdbcac010d0626809 *gd80-10-14.d2t04.flac
b86f2a3dd72edc66dede0fb551c58b17 *gd80-10-14.d2t05.flac
95ec607d6fb6f670489eb7ac73b7d93b *gd80-10-14.d2t06.flac
6fca548e0a17c1260c561cc272b10a5c *gd80-10-14.d2t07.flac
8b6586d8fbbeb4cf7ed7b7295937c947 *gd80-10-14.d2t08.flac
e857411a8a7bf29fee5cfc5d38ac2986 *gd80-10-14.d2t09.flac
9aa173346cbd459f1ffdda93df28f532 *gd80-10-14.d2t10.flac
14e3b865574408748885723c65a20c08 *gd80-10-14.d2t11.flac
f483af5d426e20dcc58dfad6eada374b *gd80-10-14.d3t01.flac
fe8061b993b2587ecd44ab79dca5ca0c *gd80-10-14.d3t02.flac
6f7546fc09eeabd80819e510d0d80800 *gd80-10-14.d3t03.flac
578517fbcda1663d425df60f887b4720 *gd80-10-14.d3t04.flac
5cbb2b2f69cea6a2114cdb852494bc5f *gd80-10-14.d3t05.flac
313f5b20cebd6911a9d274b1b4867180 *gd80-10-14.d3t06.flac
95ea20059fada82fc9f0809e7e3310a2 *gd80-10-14.d4t01.flac
ded9178e90c567cb3cbe2de97021e3ac *gd80-10-14.d4t02.flac
870f170a1e8972af9d93d8093aa678ba *gd80-10-14.d4t03.flac
cbc28ce93b2f88628e60a4ac27e9937b *gd80-10-14.d4t04.flac
3ba7e58d8eff5de032fb3d9cbdd1550a *gd80-10-14.d4t05.flac
019024072422915c19e5c034e93354f6 *gd80-10-14.d4t06.flac
61bc5f94dcd2422fcf749b0a0cf1b3ad *gd80-10-14.d4t07.flac
63c039fc1f32fd392d195db5118ba47e *gd80-10-14.d4t08.flac

Comments
Add Comment
Other Sources (comments)
SBD> MR> DAT> CDR> EAC>... (5) Set 1 and encores: unknown... (9) flac16; Recorded by... (0) SBD > Reel > Sony TCD5 >... (0) flac16/48Khz; Set 2... (0)
Date User Comment