Browse Collections Artists Sources   Search Dates

Add Show    List Management    Help


Grateful Dead 01/28/87
San Francisco Civic Auditorium, San Francisco, CA
Comments Add Comment    Source Collectors    Add to Collection    Add to Want List    History
Source # 119326 Other Sources
Entered by Matt Vernon
Checksums ffp , flac-md5
Disc Counts 0 / 0
Media Size Compressed: 1.86 GB (2001501569 bytes)
Date Circulated
Date Added
03/04/2012
03/04/2012
Source Summary flac24; OTS AUD: 2x Nakamichi CM300 w/CP4 shotguns > Sony TC-D5M > Maxell XLII-S. Transfer: MAC > Nakamichi DR-2 > Edirol FA-66 > Wavelab 2448 > CD-Wave > TLH > FLAC 2448 tagged. Taped & transferred by Andrew F. 02/2012 
  Archive
Source Information - Download Text | Download Zip
GRATEFUL DEAD
Civic Auditorium
San Francisco CA
01-28-1987

24bit/48kHz file-set

s1t01 crowd & tuning
s1t02 Shakedown Street
s1t03 Get Back
s1t04 Peggy-O
s1t05 Walkin' Blues
s1t06 It Must Have Been the Roses
s1t07 It's All Over Now
s1t08 Row Jimmy
s1t09 Brother Esau
s1t10 Birdsong
s1t11 Jack Straw

s2t01 crowd & tuning
s2t02 When Push Comes to Shove >
s2t03 Samson & Delilah
s2t04 Black Muddy River
s2t05 He's Gone >
s2t06 Spoonful >
s2t07 Drums* >
s2t08 Mini-jam* >
s2t09 Eyes of the World* >
s2t10 Black Peter >
s2t11 Around & Around
s2t12 Sugar Magnolia
s2t13 Encore: U.S. Blues

OTS AUD: 2x Nakamichi CM300 w/CP4 shotguns > Sony TC-D5M > Maxell XLII-S.

Transfer: MAC > Nakamichi DR-2 > Edirol FA-66 > Wavelab 2448 > CD-Wave >
TLH > FLAC 2448 tagged. Taped & transferred by Andrew F. 02/2012

Notes: *Drums thru Eyes w/Olatunji. ID-79466 patch, Mini-jam 0:23 > 0:31.

    length     expanded size    cdr  WAVE problems  fmt   ratio  filename
     0:48.440      13950764 B   cxx   --   ---xx   flac  0.6791  gd1987-01-28s1t01.flac
    13:26.973     232408364 B   cxx   --   ---xx   flac  0.7058  gd1987-01-28s1t02.flac
     6:04.493     104974124 B   cxx   --   ---xx   flac  0.7129  gd1987-01-28s1t03.flac
     5:57.813     103050284 B   cxx   --   ---xx   flac  0.6853  gd1987-01-28s1t04.flac
     6:17.693     108775724 B   cxx   --   ---xx   flac  0.6976  gd1987-01-28s1t05.flac
     7:00.533     121113644 B   cxx   --   ---xx   flac  0.6788  gd1987-01-28s1t06.flac
     6:52.587     118825004 B   cxx   --   ---xx   flac  0.7020  gd1987-01-28s1t07.flac
    11:29.213     198493484 B   cxx   --   ---xx   flac  0.6927  gd1987-01-28s1t08.flac
     5:18.227      91649324 B   cxx   --   ---xx   flac  0.7059  gd1987-01-28s1t09.flac
    11:19.947     195824684 B   cxx   --   ---xx   flac  0.6963  gd1987-01-28s1t10.flac
     5:35.985      96763610 B   cxx   --   ---xx   flac  0.7114  gd1987-01-28s1t11.flac
     1:12.573      20901164 B   cxx   --   ---xx   flac  0.6434  gd1987-01-28s2t01.flac
     4:27.427      77018924 B   cxx   --   ---xx   flac  0.7190  gd1987-01-28s2t02.flac
     7:15.200     125337644 B   cxx   --   ---xx   flac  0.7195  gd1987-01-28s2t03.flac
     6:05.320     105212204 B   cxx   --   ---xx   flac  0.6985  gd1987-01-28s2t04.flac
    10:36.413     183287084 B   cxx   --   ---xx   flac  0.6863  gd1987-01-28s2t05.flac
     7:11.280     124208684 B   cxx   --   ---xx   flac  0.6988  gd1987-01-28s2t06.flac
     9:19.333     161088044 B   cxx   --   ---xx   flac  0.7026  gd1987-01-28s2t07.flac
     2:08.707      37067564 B   cxx   --   ---xx   flac  0.6909  gd1987-01-28s2t08.flac
     7:15.413     125399084 B   cxx   --   ---xx   flac  0.7091  gd1987-01-28s2t09.flac
    10:07.973     175096364 B   cxx   --   ---xx   flac  0.6846  gd1987-01-28s2t10.flac
     4:39.013      80355884 B   cxx   --   ---xx   flac  0.7136  gd1987-01-28s2t11.flac
     9:14.080     159575084 B   cxx   --   ---xx   flac  0.7163  gd1987-01-28s2t12.flac
     5:40.500      98063900 B   cxx   --   ---xx   flac  0.7070  gd1987-01-28s2t13.flac
   165:25.137    2858440638 B                            0.7002  (24 files)

No errors occured.
Show Checksums
ffp
gd1987-01-28s1t01.flac:9f284cf825af8a94ce8066e110060894
gd1987-01-28s1t02.flac:9b8391aaa4420e8191bead4a826d884a
gd1987-01-28s1t03.flac:566575e933c1561ad22b934e93dcffe7
gd1987-01-28s1t04.flac:aeb50f8a689d1f7e68eafb4fccb5fc03
gd1987-01-28s1t05.flac:438708a7cdbf725b5e70d1cf0c35067e
gd1987-01-28s1t06.flac:a221ec5fc781e6ccaea537d8fd0cec4c
gd1987-01-28s1t07.flac:a4a5298fa97f36d7f06350324cf1ff9c
gd1987-01-28s1t08.flac:2c8442fba871d2f47d65024bbea7ac05
gd1987-01-28s1t09.flac:80e9d9e7295c416121796e778edbe8ec
gd1987-01-28s1t10.flac:c5b841089f848a373a2337b863a04384
gd1987-01-28s1t11.flac:c156af018f0f9dea6ca1a17564276ad5
gd1987-01-28s2t01.flac:b561b02c57c51312c02d51199e629966
gd1987-01-28s2t02.flac:e543917dab8cdf72768644604d189767
gd1987-01-28s2t03.flac:8787d3a5af351bcc7c44fa05bcc9e4f5
gd1987-01-28s2t04.flac:617cfd802491c4b9c7821b18f2a46ff2
gd1987-01-28s2t05.flac:cb1f2fc5469fbf6f6ed1f0c3ba97b218
gd1987-01-28s2t06.flac:aa3c149217c3bc92a30862f64c4778cc
gd1987-01-28s2t07.flac:6e5701509bc4fa6a02496abef5171f96
gd1987-01-28s2t08.flac:6ab3fb683577a4eb07c18c4e03d23ed6
gd1987-01-28s2t09.flac:76bf0a0ef3aa7dafa85f9b8751edb4c9
gd1987-01-28s2t10.flac:ddf025168cf1d3bd23c8776f01ea2b0a
gd1987-01-28s2t11.flac:824bc8d340dfbc0e2d43c4d5fd91e278
gd1987-01-28s2t12.flac:803283cecdd886295242879248711130
gd1987-01-28s2t13.flac:ce12b64c10021e1a9ba28d10f36b8c59
flac-md5
ef295e658a6e855d6f8d118e7d2dc2c3 *gd1987-01-28s1t01.flac
666cf7450f01300f6e7c2c45f8208e04 *gd1987-01-28s1t02.flac
d7a22f044ff04ce1b9b1a0503207ed79 *gd1987-01-28s1t03.flac
b707fc61e2f81009608c0f2aef15f27a *gd1987-01-28s1t04.flac
208c8efe0cdf8fb1f05b9569c8aa5235 *gd1987-01-28s1t05.flac
be13d05eeaae7f98abf89be0a56fae12 *gd1987-01-28s1t06.flac
c6111184e8fc85f5f9a56b6133a7d7f7 *gd1987-01-28s1t07.flac
39d26de30ad03db48ed08fe60a1a61d4 *gd1987-01-28s1t08.flac
a18d155cb84efe7bf042e088192deb06 *gd1987-01-28s1t09.flac
64454611dab7a72ab9224f01cce4bcb6 *gd1987-01-28s1t10.flac
8548dcd2a815d3d80f6e11858c3c6d4f *gd1987-01-28s1t11.flac
fb00448f2fb5008bda2043414822d96a *gd1987-01-28s2t01.flac
55be0944896299ceef6400e043fa2c92 *gd1987-01-28s2t02.flac
41f0091de658ba48fa5f37f10ccebd7f *gd1987-01-28s2t03.flac
57b6fcbc529fdf751f19b295a6d56063 *gd1987-01-28s2t04.flac
292fc5c8b286c894480cbe495c75f2bc *gd1987-01-28s2t05.flac
041045757dd306e95386bc14c3267c53 *gd1987-01-28s2t06.flac
6ef803ff0341cf34ad191b66e1b59269 *gd1987-01-28s2t07.flac
79421a3568182d08e182dfaa26befaaa *gd1987-01-28s2t08.flac
122edf8e4e8365e5c8ce1c36bb641716 *gd1987-01-28s2t09.flac
be2059198881c53d49e2fbd812b23ad3 *gd1987-01-28s2t10.flac
4f1fbb4b546de5ecd14cbdadf0a98d94 *gd1987-01-28s2t11.flac
e5d4d4a5297bf9fed4cd33e552bd09aa *gd1987-01-28s2t12.flac
ebb89001405c9fae15a03809d37c7406 *gd1987-01-28s2t13.flac

Comments
Add Comment
Other Sources (comments)
Source: SBDcm(Healy... (7) flac16; Source:... (0) flac16; Recording... (0) flac16; OTS AUD: 2x... (0) flac16; Matrix 2... (0) DTS-Audio-CD 5.1... (0) flac16/48kHz; 5.1... (0) flac24; lineage:... (0) flac24; Recording... (2) flac16; Recording... (0)
Date User Comment