Browse Collections Artists Sources   Search Dates

Add Show    List Management    Help


Grateful Dead 06/20/88
Alpine Valley Music Theatre, East Troy, WI
Comments Add Comment    Source Collectors    Add to Collection    Add to Want List    History
Source # 119380 Other Sources
Entered by Matt Vernon
Checksums ffp , flac-md5
Disc Counts 0 / 0
Media Size Compressed: 833.73 MB (874232639 bytes)
Date Circulated
Date Added
03/07/2012
03/07/2012
Source Summary flac16; Recording Info: SBD -> Cassette Master -> Cassette (Sony D5/Dolby B); Transfer Info: Cassette (Nakamichi DR-1/Dolby B) -> Sound Devices 744T (24bit/96k) -> Adobe Audition v1.5 -> Samplitude Professional v10.1 -> FLAC/16; All Transfers and Mastering By Charlie Miller 
  Archive
Source Information - Download Text | Download Zip
Grateful Dead - June 20, 1988
Alpine Valley Music Theatre - East Troy, WI

Recording Info:
SBD -> Cassette Master -> Cassette (Sony D5/Dolby B)

Transfer Info:
Cassette (Nakamichi DR-1/Dolby B) -> Sound Devices 744T (24bit/96k) ->
Adobe Audition v1.5 -> Samplitude Professional v10.1 -> FLAC/16
(2 Discs Audio / 2 Discs FLAC)

All Transfers and Mastering By Charlie Miller
[email protected]
November 26, 2008

Patch Info:
Sennheiser 441 -> Cassette Master -> Dat -> CD (shnid=17269) supplies:
Box Of Rain (0:48 - 0:53)
Don't Ease Me In (1:53 - 2:16)

Notes:
-- Disc change is seamless
-- There is a lot of vocal distortion
-- Tape speed at the end of Terrapin Station is a mess
-- Thanks to Joe B. Jones for his help with the pitch correction

Set 1:
d1t01 - Tuning
d1t02 - Jack Straw
d1t03 - Box Of Rain
d1t04 - West L.A. Fadeaway
d1t05 - Stuck Inside of Mobile With The Memphis Blues Again
d1t06 - Loser
d1t07 - Cassidy ->
d1t08 - Don't Ease Me In

Set 2:
d1t09 - Tuning
d1t10 - Victim Or The Crime ->
d1t11 - Cumberland Blues
d1t12 - Blow Away ->
d1t13 - Ship of Fools
d2t01 - Truckin' ->
d2t02 - Terrapin Station ->
d2t03 - Drums ->
d2t04 - Space ->
d2t05 - The Other One ->
d2t06 - Wharf Rat ->
d2t07 - Around And Around ->
d2t08 - Good Lovin'

Encore:
d2t09 - U.S. Blues


SHNTOOL OUTPUT:
    
    length     expanded size   cdr  WAVE problems filename
     1:53.40       20027324    ---   --   -----   gd88-06-20d1t01.wav
     6:27.06       68280956    ---   --   -----   gd88-06-20d1t02.wav
     5:01.57       53230508    ---   --   -----   gd88-06-20d1t03.wav
     8:27.34       89514812    ---   --   -----   gd88-06-20d1t04.wav
     9:12.52       97495148    ---   --   -----   gd88-06-20d1t05.wav
     7:42.20       81543884    ---   --   -----   gd88-06-20d1t06.wav
     6:28.50       68560844    ---   --   -----   gd88-06-20d1t07.wav
     3:31.44       37323932    ---   --   -----   gd88-06-20d1t08.wav
     2:14.08       23656460    ---   --   -----   gd88-06-20d1t09.wav
     6:03.31       64106156    ---   --   -----   gd88-06-20d1t10.wav
     5:15.09       55587212    ---   --   -----   gd88-06-20d1t11.wav
     6:24.36       67822316    ---   --   -----   gd88-06-20d1t12.wav
     7:53.00       83437244    ---   --   -----   gd88-06-20d1t13.wav
     6:50.46       72432236    ---   --   -----   gd88-06-20d2t01.wav
    11:44.00      124185644    ---   --   -----   gd88-06-20d2t02.wav
     6:15.33       66227660    ---   --   -----   gd88-06-20d2t03.wav
     4:20.70       46028684    ---   --   -----   gd88-06-20d2t04.wav
     8:30.06       89978156    ---   --   -----   gd88-06-20d2t05.wav
     9:16.15       98113724    ---   --   -----   gd88-06-20d2t06.wav
     3:58.47       42093788    ---   --   -----   gd88-06-20d2t07.wav
     9:23.36       99397916    ---   --   -----   gd88-06-20d2t08.wav
     5:34.59       59056412    ---   --   -----   gd88-06-20d2t09.wav
   142:29.24     1508101016 B                     (totals for 22 files)
Show Checksums
ffp
gd88-06-20d1t01.flac:495ad11bf0b62c211852cc91d5e68bf5
gd88-06-20d1t02.flac:9f5c57a1612dc95cd33687f5cae7ed93
gd88-06-20d1t03.flac:29ef22149ea88dc02955669acca5ce04
gd88-06-20d1t04.flac:c3b8e90436dca67b15d1ccaefaf2d97c
gd88-06-20d1t05.flac:0b0d5bf9497aa8728c62f7d2617913e1
gd88-06-20d1t06.flac:3e956a22f24495abb681923ad2e7baf0
gd88-06-20d1t07.flac:2d35ddff752076c995afc8a0c572ac4b
gd88-06-20d1t08.flac:c79854b0addc0a93e08fab0d532c3198
gd88-06-20d1t09.flac:db9e48032dd008de36fc445178bf3772
gd88-06-20d1t10.flac:63888160dc77400f194a953a55036da1
gd88-06-20d1t11.flac:17cf6ef624e8293299fb512007e2bfd1
gd88-06-20d1t12.flac:d1cdf499d80d5ad6604db2abe3d640d1
gd88-06-20d1t13.flac:bd33959c821a390d310edce337d03555
gd88-06-20d2t01.flac:9970b0d16f543edd68cbbd187453b467
gd88-06-20d2t02.flac:2d4341f5cb97f55939b271d50a27db57
gd88-06-20d2t03.flac:8bbcd97681cff7d30c1c1590d21dc9d2
gd88-06-20d2t04.flac:20d4d866601d0c4d907559d95d9874d7
gd88-06-20d2t05.flac:2564521ee7afc3a6a1e7fa9d359d29a0
gd88-06-20d2t06.flac:fb19ddb97d091ed11990249edea6d1ea
gd88-06-20d2t07.flac:978b9b04dd0690724889fb350244efe3
gd88-06-20d2t08.flac:b9a8f6981afd3523a232dc00f4f4fea6
gd88-06-20d2t09.flac:5a346637082274b2a29b478cdf9480db
flac-md5
fc93f5d934051dbba4d78c33a605c4ac *gd88-06-20d1t01.flac
725ea6e1b3d9e351143efb875a780276 *gd88-06-20d1t02.flac
6a9d2beacf44bcad338c762f308ccff4 *gd88-06-20d1t03.flac
6d1417768a7e53810615d2ef60e52682 *gd88-06-20d1t04.flac
0378ced8742cf03b3befd6bce7a13605 *gd88-06-20d1t05.flac
388b0f146520f340f1872d0b011dfd5f *gd88-06-20d1t06.flac
172576b2e00446daee6e875b5cabac0e *gd88-06-20d1t07.flac
4044d54ab41a54601dd78293a63c9ca6 *gd88-06-20d1t08.flac
6b7561909733580b2cf045e8598dbb5a *gd88-06-20d1t09.flac
95134a6186f5dcb6c38d085be98aeb47 *gd88-06-20d1t10.flac
af717e1c7a45673ea64c2e6162634a02 *gd88-06-20d1t11.flac
7fdee1780791e12ae5064f000924f18e *gd88-06-20d1t12.flac
6b96d5bdbb0cda1e2882fcfe6227a408 *gd88-06-20d1t13.flac
29228f89fcfc7e70d06fd3410722b7f1 *gd88-06-20d2t01.flac
5e29b49841fb4f5fb9609674d3b3067f *gd88-06-20d2t02.flac
f1ddf32405574748cdbe094a22e40ab3 *gd88-06-20d2t03.flac
4490f409b9c3b08b34d47bb04175692f *gd88-06-20d2t04.flac
944b9913831b44bbcecd982848527ae9 *gd88-06-20d2t05.flac
192503e5af757505976bfd40f9f03705 *gd88-06-20d2t06.flac
15137643b901253fd5dbf789b4f1629f *gd88-06-20d2t07.flac
b10fc5140e8471946c82b5a0469aa091 *gd88-06-20d2t08.flac
7f632292379d945dd7015fdef153e264 *gd88-06-20d2t09.flac

Comments
Add Comment
Other Sources (comments)
Source: AUD(Senn 441's)>CM... (0) flac16; Source: 2... (0) flac24; Master... (0) flac16; Master... (0) flac16; Recording... (0) flac16; Source... (0)
Date User Comment