Browse Collections Artists Sources   Search Dates

Add Show    List Management    Help


Grateful Dead 04/13/83
Patrick Gymnasium, U of Vermont, Burlington, VT
Comments Add Comment    Source Collectors    Add to Collection    Add to Want List    History
Source # 119531 Other Sources
Entered by Gary Field
Checksums ffp , flac-md5
Disc Counts 0 / 0
Media Size Compressed: 1.84 GB (1973693558 bytes)
Date Circulated
Date Added
03/18/2012
03/19/2012
Source Summary flac24; AUD: 2x Nakamichi CM300 w/CP-1 cardioid capsules > Sony TC-D5M > Maxell MX90's, in bleachers directly behind soundboard, taped by Tim Friend & Joe Morrone. Transfer: MAC > Nakamichi DR-2 > Edirol FA-66 > Wavelab 2448 > CD-Wave > TLH > FLAC 2448 tagged. Transferred by Andrew F. 
  Archive
Source Information - Download Text | Download Zip
GRATEFUL DEAD
Patrick Gymnasium
University of Vermont
Burlington VT
04-13-1983

24bit/48kHz file-set

s1t01 Jack Straw
s1t02 They Love Eachother >
s1t03 Beat it on Down the Line
s1t04 West L.A. Fade Away
s1t05 Mama Tried >
s1t06 Cumberland Blues
s1t07 Ramble on Rose
s1t08 Far From Me
s1t09 Brother Esau >
s1t10 Might as Well

s2t01 crowd & tuning
s2t02 Scarlet Begonias >
s2t03 Fire on the Mountain
s2t04 crowd & tuning
s2t05 Estimated Prophet >
s2t06 Eyes of the World >
s2t07 Maybe You Know
xxxxx Drums (missing)
s2t08 Space >
s2t09 Morning Dew >
s2t10 Throwing Stones >
s2t11 Good Lovin'
s2t12 crowd & tuning
s2t13 Encore: Touch of Grey

AUD: 2x Nakamichi CM300 w/CP-1 cardioid capsules > Sony TC-D5M > Maxell
MX90's, in bleachers directly behind soundboard, taped by Tim Friend & Joe Morrone.

Transfer: MAC > Nakamichi DR-2 > Edirol FA-66 > Wavelab 2448 > CD-Wave >
TLH > FLAC 2448 tagged. Transferred by Andrew F. 03/2012

Notes: Same recording as ID-82876, however this one originates from the
lead deck, with better signal & equipment, onto metal tapes, and without
the tape damage present on the ID-82876 master. Overall, the sound is an
improvement... An alternate 1st-gen AUD patches Jack Straw 0:00 > 0:18.
MAC from ID-82876 patches tape-flip in Eyes 7:02 > 7:08. Drums missing
from the recordings, cross-faded together at start of Space track-ID.

    length     expanded size    cdr  WAVE problems  fmt   ratio  filename
     7:03.693     122023724 B   cxx   --   ---xx   flac  0.6970  gd1983-04-13s1t01.flac
     8:00.680     138435884 B   cxx   --   ---xx   flac  0.6972  gd1983-04-13s1t02.flac
     4:14.187      73205804 B   cxx   --   ---xx   flac  0.7064  gd1983-04-13s1t03.flac
     8:03.107     139134764 B   cxx   --   ---xx   flac  0.6989  gd1983-04-13s1t04.flac
     2:47.493      48238124 B   cxx   --   ---xx   flac  0.7064  gd1983-04-13s1t05.flac
     7:52.107     135966764 B   cxx   --   ---xx   flac  0.6957  gd1983-04-13s1t06.flac
     8:16.267     142924844 B   cxx   --   ---xx   flac  0.6870  gd1983-04-13s1t07.flac
     4:17.227      74081324 B   cxx   --   ---xx   flac  0.7137  gd1983-04-13s1t08.flac
     6:37.867     114585644 B   cxx   --   ---xx   flac  0.6911  gd1983-04-13s1t09.flac
     4:46.931      82636214 B   cxx   --   ---xx   flac  0.7220  gd1983-04-13s1t10.flac
     1:00.853      17525804 B   cxx   --   ---xx   flac  0.6280  gd1983-04-13s2t01.flac
    13:50.707     239243564 B   cxx   --   ---xx   flac  0.7236  gd1983-04-13s2t02.flac
    11:46.493     203470124 B   cxx   --   ---xx   flac  0.7317  gd1983-04-13s2t03.flac
     1:31.480      26346284 B   cxx   --   ---xx   flac  0.6126  gd1983-04-13s2t04.flac
    11:34.827     200110124 B   cxx   --   ---xx   flac  0.7129  gd1983-04-13s2t05.flac
     9:48.360     169447724 B   cxx   --   ---xx   flac  0.7299  gd1983-04-13s2t06.flac
     4:00.880      69373484 B   cxx   --   ---xx   flac  0.7386  gd1983-04-13s2t07.flac
    10:15.280     177200684 B   cxx   --   ---xx   flac  0.6220  gd1983-04-13s2t08.flac
    11:16.667     194880044 B   cxx   --   ---xx   flac  0.7012  gd1983-04-13s2t09.flac
     8:48.320     152156204 B   cxx   --   ---xx   flac  0.7085  gd1983-04-13s2t10.flac
     8:45.253     151273004 B   cxx   --   ---xx   flac  0.7251  gd1983-04-13s2t11.flac
     1:01.760      17786924 B   cxx   --   ---xx   flac  0.6306  gd1983-04-13s2t12.flac
     6:30.125     112356158 B   cxx   --   ---xx   flac  0.7325  gd1983-04-13s2t13.flac
   162:10.563    2802403216 B                            0.7043  (23 files)

No errors occured.
Show Checksums
ffp
gd1983-04-13s1t01.flac:3034bba0c818ca0648cb86be966d95fd
gd1983-04-13s1t02.flac:e4e94b4846809233d681d10120aa974e
gd1983-04-13s1t03.flac:25ec4c0eb7babdb462ef9bde951d81d5
gd1983-04-13s1t04.flac:246f4c61d45c388774df2265a6c4373f
gd1983-04-13s1t05.flac:7d4e997ac831144aec6173312128e3e6
gd1983-04-13s1t06.flac:deeec618bd397279c4368fa9c4f6fca1
gd1983-04-13s1t07.flac:cbaecf4cfb0ec13f124cbe1e1aa7ab4d
gd1983-04-13s1t08.flac:e541169cc3bbfd0032ab4d46acf4b2a4
gd1983-04-13s1t09.flac:a56f3eb0febd82e498f1cabc69dd0025
gd1983-04-13s1t10.flac:56246d5c8a2bd64376bf34facba9abfe
gd1983-04-13s2t01.flac:cb81543dcffc7a08461dfda67a99c3f2
gd1983-04-13s2t02.flac:19c3a15bdc67e5e50e9f5dc71481cd9b
gd1983-04-13s2t03.flac:b682aaded3a466e0e257c4fe29b26658
gd1983-04-13s2t04.flac:7d36bf0fbb9b7cf50547442bfa67cde5
gd1983-04-13s2t05.flac:883d350777dad3c1ef7fe27ca57d7653
gd1983-04-13s2t06.flac:6f2c764fa94b6df55246731f06eb7935
gd1983-04-13s2t07.flac:3591ab41450579bedfe0093499c981f3
gd1983-04-13s2t08.flac:c0b9836ad6485db1544b891617c9310b
gd1983-04-13s2t09.flac:e51599029b48710ac63188095e025ff9
gd1983-04-13s2t10.flac:92a49418af5676797374965c92224fdb
gd1983-04-13s2t11.flac:226169be75c2a6a7211626d9a8bb47d2
gd1983-04-13s2t12.flac:a2f03c8e24443c2db4a2fc51914a0d51
gd1983-04-13s2t13.flac:f94e6a8a22b0bfbd40aec506500c9534
flac-md5
a4574be286cc0d6ed8a4eb24dfe00b86 *gd1983-04-13s1t01.flac
cffc64dafaadcc588fffbf8f646d6411 *gd1983-04-13s1t02.flac
953f42b6bfc243ee054803257c5f6582 *gd1983-04-13s1t03.flac
700c065ed629be8805a2d0940fb81370 *gd1983-04-13s1t04.flac
ed61310d8453c5de0226a7b9d38f4558 *gd1983-04-13s1t05.flac
98588320a7863f24176498969eb2f1a7 *gd1983-04-13s1t06.flac
54aaa8f96025cb99fd331449763b271d *gd1983-04-13s1t07.flac
e4f85ce8da1ef903d567c3fc03224dff *gd1983-04-13s1t08.flac
ee08b86e81fe15ba78dc60713a710690 *gd1983-04-13s1t09.flac
acc68aa10d4c58c7468de0736224c250 *gd1983-04-13s1t10.flac
5e6413baca6dd05bf786a30155f53740 *gd1983-04-13s2t01.flac
b62ea6964428e4b46c16f13a1d04372f *gd1983-04-13s2t02.flac
665144556bd512476766235b78f96cef *gd1983-04-13s2t03.flac
fff3649fed7901ef025244324cea7ea3 *gd1983-04-13s2t04.flac
939c8eee35bc07d79355ed8265a6023d *gd1983-04-13s2t05.flac
3fb06377f0a6d452fc160bd3c98b0e8c *gd1983-04-13s2t06.flac
9e8101d041d2a714d122a1a5e5205e53 *gd1983-04-13s2t07.flac
ad413cc854b9c1355264a99f68df7ff0 *gd1983-04-13s2t08.flac
43a012f1b04ea61c52776896bd6dd7ec *gd1983-04-13s2t09.flac
c8849fbc285f20daa387b8fd0aa8c431 *gd1983-04-13s2t10.flac
277fb815a2592ca8e787d35f37d76089 *gd1983-04-13s2t11.flac
14d90c1110aad3c1ccbe3a7f134eda8c *gd1983-04-13s2t12.flac
f6d238e364b9c499d9017ac0f7217efe *gd1983-04-13s2t13.flac

Comments
Add Comment
Other Sources (comments)
MSC -> Reel (3 3/4 ips) ->... (12) Source: MAC(FOB Sennheiser... (0) SDB>>CM>>C>>DAT>>CDR via... (2) flac16; AUD Source:... (4) flac 16 Source: 3... (1) flac16; Matrix by... (0) flac16; AUD: 2x... (1) flac24; Updated... (1) flac16/48kHz; Set 2... (0) flac16; aud cassette... (0) flac24; aud cassette... (0) flac16/44.1... (0) flac24/48 ... (0)
Date User Comment
02/08/2013 nfagdtrfb text file correction: taped by Tim Friend & Joe Morrone, thanks guys!