Browse Collections Artists Sources   Search Dates

Add Show    List Management    Help


Grateful Dead 04/13/83
Patrick Gymnasium, U of Vermont, Burlington, VT
Comments Add Comment    Source Collectors    Add to Collection    Add to Want List    History
Source # 119554 Other Sources
Entered by Gary Field
Checksums ffp , flac-md5
Disc Counts 0 / 0
Media Size Compressed: 998.49 MB (1046989349 bytes)
Date Circulated
Date Added
03/21/2012
03/21/2012
Source Summary flac16; AUD: 2x Nakamichi CM300 w/CP-1 cardioid capsules > Sony TC-D5M > Maxell MX90's, in bleachers directly behind soundboard, taped by Tim Friend & Joe Morrone. Transfer: MAC > Nakamichi DR-2 > Edirol FA-66 > Wavelab 2448 > R8Brain > CD-Wave > TLH > FLAC 1644 tagged. Transferred by Andrew F. 03/2012 
  Archive
Source Information - Download Text | Download Zip
GRATEFUL DEAD
Patrick Gymnasium
University of Vermont
Burlington VT
04-13-1983

16bit/44.1kHz file-set

s1t01 Jack Straw
s1t02 They Love Eachother >
s1t03 Beat it on Down the Line
s1t04 West L.A. Fade Away
s1t05 Mama Tried >
s1t06 Cumberland Blues
s1t07 Ramble on Rose
s1t08 Far From Me
s1t09 Brother Esau >
s1t10 Might as Well

s2t01 crowd & tuning
s2t02 Scarlet Begonias >
s2t03 Fire on the Mountain
s2t04 crowd & tuning
s2t05 Estimated Prophet >
s2t06 Eyes of the World >
s2t07 Maybe You Know >
s2t08 Drums >
s2t09 Space >
s2t10 Morning Dew >
s2t11 Throwing Stones >
s2t12 Good Lovin'
s2t13 crowd & tuning
s2t14 Encore: Touch of Grey

AUD: 2x Nakamichi CM300 w/CP-1 cardioid capsules > Sony TC-D5M > Maxell
MX90's, in bleachers directly behind soundboard, taped by Tim Friend & Joe Morrone.

Transfer: MAC > Nakamichi DR-2 > Edirol FA-66 > Wavelab 2448 > R8Brain >
CD-Wave > TLH > FLAC 1644 tagged. Transferred by Andrew F. 03/2012

Notes: Same recording as ID-82876, however this one originates from the
lead deck, with better signal & equipment, onto metal tapes, and without
the tape damage present on the ID-82876 master. Overall, the sound is an
improvement... An alternate 1st-gen AUD patches Jack Straw 0:00 > 0:18.
MAC from ID-82876 patches tape-flip in Eyes 7:02 > 7:08. Drums has been
patched in from ID-1614 and re-mixed in Wavelab to more resemble an AUD.

    length     expanded size    cdr  WAVE problems  fmt   ratio  filename
     7:03.52       74739548 B   ---   --   ---xx   flac  0.5682  gd1983-04-13s1t01.flac
     8:00.50       84789644 B   ---   --   ---xx   flac  0.5694  gd1983-04-13s1t02.flac
     4:14.15       44840924 B   ---   --   ---xx   flac  0.5841  gd1983-04-13s1t03.flac
     8:03.08       85220060 B   ---   --   ---xx   flac  0.5729  gd1983-04-13s1t04.flac
     2:47.38       29548220 B   ---   --   ---xx   flac  0.5834  gd1983-04-13s1t05.flac
     7:52.07       83277308 B   ---   --   ---xx   flac  0.5670  gd1983-04-13s1t06.flac
     8:16.19       87539132 B   ---   --   ---xx   flac  0.5532  gd1983-04-13s1t07.flac
     4:17.18       45377180 B   ---   --   ---xx   flac  0.5951  gd1983-04-13s1t08.flac
     6:37.65       70183724 B   ---   --   ---xx   flac  0.5600  gd1983-04-13s1t09.flac
     4:46.70       50615084 B   ---   --   ---xx   flac  0.6099  gd1983-04-13s1t10.flac
     1:00.64       10734572 B   ---   --   ---xx   flac  0.4880  gd1983-04-13s2t01.flac
    13:50.53      146536700 B   ---   --   ---xx   flac  0.6219  gd1983-04-13s2t02.flac
    11:46.40      124632524 B   ---   --   ---xx   flac  0.6328  gd1983-04-13s2t03.flac
     1:31.33       16130060 B   ---   --   ---xx   flac  0.4570  gd1983-04-13s2t04.flac
    11:34.62      122567468 B   ---   --   ---xx   flac  0.6056  gd1983-04-13s2t05.flac
     9:48.27      103786748 B   ---   --   ---xx   flac  0.6302  gd1983-04-13s2t06.flac
     4:00.08       42354860 B   ---   --   ---xx   flac  0.6438  gd1983-04-13s2t07.flac
     6:58.08       73754060 B   ---   --   ---xx   flac  0.5112  gd1983-04-13s2t08.flac
    10:15.27      108549548 B   ---   --   ---xx   flac  0.4686  gd1983-04-13s2t09.flac
    11:16.68      119406380 B   ---   --   ---xx   flac  0.5887  gd1983-04-13s2t10.flac
     8:48.39       93230972 B   ---   --   ---xx   flac  0.5998  gd1983-04-13s2t11.flac
     8:45.05       92621804 B   ---   --   ---xx   flac  0.6241  gd1983-04-13s2t12.flac
     1:01.60       10901564 B   ---   --   ---xx   flac  0.4877  gd1983-04-13s2t13.flac
     6:30.05       68807804 B   ---   --   ---xx   flac  0.6360  gd1983-04-13s2t14.flac
   169:08.16     1790145888 B                            0.5849  (24 files)

No errors occured.
Show Checksums
ffp
gd1983-04-13s1t01.flac:86b73bbd47a218f435a380dffc80aa8a
gd1983-04-13s1t02.flac:ebe592523e31156737d096e0e77945bb
gd1983-04-13s1t03.flac:bb9007da6a363cc6854738899b225206
gd1983-04-13s1t04.flac:7ee4d609521a92473806c768c9016b8e
gd1983-04-13s1t05.flac:a4db18893bf1e29085171eefa3ebcd65
gd1983-04-13s1t06.flac:3d7813d32c864a78126d1455d29006ff
gd1983-04-13s1t07.flac:cbafffb74983bb47489b4c0efbe82d32
gd1983-04-13s1t08.flac:99558e6930cdec4301898e68c764e9c1
gd1983-04-13s1t09.flac:98fa60251e90e625d3946a0ebbdc9635
gd1983-04-13s1t10.flac:55326d5eae71b3f6eacb0b99b013addb
gd1983-04-13s2t01.flac:2fa7274263a642d20ef053093582fd6f
gd1983-04-13s2t02.flac:83cf718f42e80b66b6838df4e0d11167
gd1983-04-13s2t03.flac:ad57cfe2229cf82d58f0eaba90e03138
gd1983-04-13s2t04.flac:a7339081e293bf5dd4461fb4ea03da04
gd1983-04-13s2t05.flac:8d5db498ff5b0ffd6ddb990b1d564738
gd1983-04-13s2t06.flac:bbaf4589efd8f8fc96a53de3e76654f5
gd1983-04-13s2t07.flac:05c980230224b218dddf8a23ad5132c7
gd1983-04-13s2t08.flac:232dcbb5339d6b7ed2cca5826e9e5f78
gd1983-04-13s2t09.flac:3c0d10c3e1ce9f72d83e71a3b876ab8f
gd1983-04-13s2t10.flac:ac9cf3e0ee36022c9c0ed43a7d3167c2
gd1983-04-13s2t11.flac:c7e126023f7365850227fbebf94299b6
gd1983-04-13s2t12.flac:34d89e998d611ef5226e6ef656c5f77c
gd1983-04-13s2t13.flac:7cc73eb15c9c7d877a68096a51f6ecc7
gd1983-04-13s2t14.flac:c6df1c54e0316d0f81a1924e70078503
flac-md5
7d6129e6f8ab3dac9f29348544f5c253 *gd1983-04-13s1t01.flac
6dd22dff49c8e3faf1119dd77465cdd1 *gd1983-04-13s1t02.flac
c8c76b96629cbbddaf4f1f48890d1df2 *gd1983-04-13s1t03.flac
eae0d43a9f7cae259ad310237b78e9e8 *gd1983-04-13s1t04.flac
9a8f9ebdcb782dc4de6b03052800116e *gd1983-04-13s1t05.flac
6c6d98dde6cf9918ed0ad48ce3261647 *gd1983-04-13s1t06.flac
87c53161cf5f6e89c1100d3de96cb4a2 *gd1983-04-13s1t07.flac
fda8c7579672c6c2ddedf66e4b6ca29a *gd1983-04-13s1t08.flac
a72ef085193251dfcec23ccb45c58fb4 *gd1983-04-13s1t09.flac
672b1a7b55e4088510659603d199a2fd *gd1983-04-13s1t10.flac
e86dddec2a0cb3f9efc69184e1f663af *gd1983-04-13s2t01.flac
2f1ea9dd06be696258013db73e64bc0a *gd1983-04-13s2t02.flac
a569c96bf9e61fbadb37171254bc0064 *gd1983-04-13s2t03.flac
c2195ab948136f1e6da60f852345d75e *gd1983-04-13s2t04.flac
2d81f7aad4370c2688af0f5c44e026c8 *gd1983-04-13s2t05.flac
06e9c14573aec08ce5f302bc2fad70e4 *gd1983-04-13s2t06.flac
8f0424ccba2c3514bfa7e4c7657dd0a9 *gd1983-04-13s2t07.flac
c7fdcb2471a9c22a47881aef3f19732b *gd1983-04-13s2t08.flac
f9257bb9d7431261276fe50d46ab568d *gd1983-04-13s2t09.flac
5a909c477ad3a55941f53df5400f4d86 *gd1983-04-13s2t10.flac
97e0c48673b3527dc224b9671fe22fb7 *gd1983-04-13s2t11.flac
458ca88054916139492d2249b0d1ba3f *gd1983-04-13s2t12.flac
b9ccac6d7e296dba2c83e174648d8642 *gd1983-04-13s2t13.flac
bf6b9824acddf091920fca71c1b4cbbc *gd1983-04-13s2t14.flac

Comments
Add Comment
Other Sources (comments)
MSC -> Reel (3 3/4 ips) ->... (12) Source: MAC(FOB Sennheiser... (0) SDB>>CM>>C>>DAT>>CDR via... (2) flac16; AUD Source:... (4) flac 16 Source: 3... (1) flac16; Matrix by... (0) flac24; AUD: 2x... (1) flac24; Updated... (1) flac16/48kHz; Set 2... (0) flac16; aud cassette... (0) flac24; aud cassette... (0) flac16/44.1... (0) flac24/48 ... (0)
Date User Comment
02/08/2013 nfagdtrfb text file correction: taped by Tim Friend & Joe Morrone, thanks guys!