Browse Collections Artists Sources   Search Dates

Add Show    List Management    Help


Grateful Dead 10/14/94
Madison Square Garden, New York, NY
Comments Add Comment    Source Collectors    Add to Collection    Add to Want List    History
Source # 119611 Other Sources
Entered by Matt Vernon
Checksums flac-md5 , ffp
Disc Counts 2 / 3
Media Size Compressed: 1.68 GB (1803396836 bytes)
Date Circulated
Date Added
03/25/2012
03/25/2012
Source Summary flac16; Matrix by Jubal H. Seamons using Final Cut Pro (FLAC > AIFF > Final Cut w/EQ > AIFF CD tracking via Audacity > FLAC16 via xACT w/meta-tagging) 
  Archive
Source Information - Download Text | Download Zip
Grateful Dead
Madison Square Garden
New York, NY
October 14, 1994

Jerry Garcia - Lead Guitar, Vocals
Mickey Hart - Drums
Bill Kreutzmann - Drums
Phil Lesh - Electric Bass, Vocals
Bob Weir - Rhythm Guitar, Vocals
Vince Welnick - Keyboards, Vocals



*Matrix*



-----------------------------------------------------------------
SBD (shnid=79167):

Recording Info:
SBD -> Dat (44.1k)

Transfer Info:
Dat (Sony D8) -> Samplitude Professional v7.02 -> FLAC
(2 Discs Audio / 2 Discs FLAC)

All Transfers and Mastering By Charlie Miller
[email protected]
October 14, 2006

-----------------------------------------------------------------
AUD (shnid=96383):

Source: aud > Nak 300 shotguns > WMD-6 > mac
Transfer: mac > Nakamichi CR-5A > EMU 1212M > 24/96 Wave > Adobe Audition >
                Wavelab with iZotope Ozone > iZotope RX Advanced > 16/44.1 Wave > CD Wave > TLH > flac16

- Taped by John Bleich from Section 10, Row P, Seat 4
- Transfer by Bgreen
- Edited by SIRMick
- Brought To You By Live Music Preservation Project
- Seeded to www.shnflac.net - December 2008

-----------------------------------------------------------------
Thank you to Charlie Miller for the SBD transfer,
to John Bleich for recording the show,
and to Brian Green and SIRMick for the AUD transfer.

Matrix by Jubal H. Seamons using Final Cut Pro (FLAC > AIFF > Final Cut w/EQ > AIFF CD tracking via Audacity > FLAC16 via xACT w/meta-tagging)
March 25, 2012



Set I
-----
d1t01 - Tuning
d1t02 - Jack Straw ->
d1t03 - West L.A. Fadeaway
d1t04 - Queen Jane Approximately
d1t05 - Lazy River Road
d1t06 - El Paso*
d1t07 - Ramble On Rose
d1t08 - Box Of Rain

Set II
-----
d2t01 - Scarlet Begonias ->
d2t02 - Fire On The Mountain
d2t03 - Looks Like Rain
d2t04 - Samba In The Rain
d3t01 - Corrina ->
d3t02 - Drums** ->
d3t03 - Space ->
d3t04 - I Need A Miracle ->
d3t05 - Attics Of My Life ->
d3t06 - Turn On Your Lovelight

Encore
------
d3t07 - Liberty



*Weir on acoustic guitar
**It's About That Time tease (10:11)



-----------------------------
facebook.com/GratefulDeadTrix
-----------------------------



    length     expanded size    cdr  WAVE problems  fmt   ratio  filename
     1:51.07       19596908 B   ---   --   ---xx  gd94-10-14d1t01.flac
     6:01.20       63727484 B   ---   --   ---xx  gd94-10-14d1t02.flac
     8:40.59       91866812 B   ---   --   ---xx  gd94-10-14d1t03.flac
     6:20.40       67126124 B   ---   --   ---xx  gd94-10-14d1t04.flac
     7:21.04       77801852 B   ---   --   ---xx  gd94-10-14d1t05.flac
     6:29.23       68673740 B   ---   --   ---xx  gd94-10-14d1t06.flac
     9:32.28      100966700 B   ---   --   ---xx  gd94-10-14d1t07.flac
     5:19.58       56408060 B   ---   --   ---xx  gd94-10-14d1t08.flac
    10:03.69      106531532 B   ---   --   ---xx  gd94-10-14d2t01.flac
    23:27.39      248286572 B   ---   --   ---xx  gd94-10-14d2t02.flac
     8:47.08       92981660 B   ---   --   ---xx  gd94-10-14d2t03.flac
     7:07.08       75341660 B   ---   --   ---xx  gd94-10-14d2t04.flac
    17:16.15      182785724 B   ---   --   ---xx  gd94-10-14d3t01.flac
    10:46.03      113961500 B   ---   --   ---xx  gd94-10-14d3t02.flac
    17:36.02      186283148 B   ---   --   ---xx  gd94-10-14d3t03.flac
     5:15.06       55580156 B   ---   --   ---xx  gd94-10-14d3t04.flac
     5:26.67       57664028 B   ---   --   ---xx  gd94-10-14d3t05.flac
     6:38.45       70313084 B   ---   --   ---xx  gd94-10-14d3t06.flac
     6:22.49       67500092 B   ---   --   ---xx  gd94-10-14d3t07.flac
   170:23.25     1803396836 B                            0.5672  (19 files)
Show Checksums
flac-md5
b260608c38776695530e00b05d0e4db9 *gd94-10-14d1t01.flac
9cc58d8290e6136b9fb4af3db1fe551c *gd94-10-14d1t02.flac
0d34c146332f1b2e86fb9bacddd231db *gd94-10-14d1t03.flac
53894d098cdbeeeead619e8dc6c3f422 *gd94-10-14d1t04.flac
17592a6c545abca92d592a29632d5557 *gd94-10-14d1t05.flac
912c6e4e2d5ed95330024a6bbf26b47f *gd94-10-14d1t06.flac
1064f2e8b3352cdaf8be930bff667c7d *gd94-10-14d1t07.flac
a3e598c992d388c7e3f4c797f609b552 *gd94-10-14d1t08.flac
ade9515a76281cee398f3c9126d6d716 *gd94-10-14d2t01.flac
64e575a2486c7831c0bfd0af652533f3 *gd94-10-14d2t02.flac
b9c2277233dc48e56ae7b7d52034fdd1 *gd94-10-14d2t03.flac
c6030f28a73a01e55493e08a0c70e4b8 *gd94-10-14d2t04.flac
99c4ca2b3b358254c85b2eee59aa2811 *gd94-10-14d3t01.flac
fec2d85cd1940ba012b7bdc82721a114 *gd94-10-14d3t02.flac
0e38e920a5f88220e55b4d3ade80de2f *gd94-10-14d3t03.flac
8abba6679301cbc981379ef45ae8351c *gd94-10-14d3t04.flac
db8b2ae1b9ab9a842c812bd33dcc1c14 *gd94-10-14d3t05.flac
a0763b34113dc9cb5437684526070c2d *gd94-10-14d3t06.flac
7b222456d67cac9787d5df8f5b9845df *gd94-10-14d3t07.flac
ffp
gd94-10-14d1t01.flac:c22c1b6488ce6ae66bc608270074529f
gd94-10-14d1t02.flac:b1ec918cd477bf43d0f4afcaecd9081b
gd94-10-14d1t03.flac:7fe02397ccee832727cecdd582289d1d
gd94-10-14d1t04.flac:fdfaddb719906b799d52337068d480ea
gd94-10-14d1t05.flac:4e2aee105cde3334a66bef2c8cd0c648
gd94-10-14d1t06.flac:da95b6b74dbd7c388d284eae237d9788
gd94-10-14d1t07.flac:8ff097874de702f27c5fba4572f5a2f7
gd94-10-14d1t08.flac:3bff73f4580a964ed29fad772b5c3007
gd94-10-14d2t01.flac:cf6e3f5a8d165f3a342d841074573d65
gd94-10-14d2t02.flac:25dd13a1a60f0e239f46aa7d8a92e668
gd94-10-14d2t03.flac:1fec58cc02cc86b5f9256a2da81dbab7
gd94-10-14d2t04.flac:fe83e3e1bde6d01edb99d9501f9c9031
gd94-10-14d3t01.flac:f7f540013510a1f628c43f91cff65e7a
gd94-10-14d3t02.flac:97f88a74481f0cf17695bd5f1d163a09
gd94-10-14d3t03.flac:cd473561b7ac8b5eb5cae1daba8cbd28
gd94-10-14d3t04.flac:1737b521b54995a0584b2ad3e6345d8e
gd94-10-14d3t05.flac:57cb8d5c05a22ee4539d80c923a3bb89
gd94-10-14d3t06.flac:d5de3af3f35b9c67e139cd3a69347304
gd94-10-14d3t07.flac:5a94c33512a3a061059bcaf009ec93c8

Comments
Add Comment
Other Sources (comments)
sbd> dat> c> dat> cdr; EAC>... (3) Sbd>C>Dat>CDR>EAC>CDR>EAC>S... (1) flac16; Recording... (0) flac16; Source:... (1) flac16; Source: aud... (0) flac16/48kHz; Master... (0)
Date User Comment