Browse Collections Artists Sources   Search Dates

Add Show    List Management    Help


Grateful Dead 09/06/80
State Fairgrounds, Lewiston, ME
Comments Add Comment    Source Collectors    Add to Collection    Add to Want List    History
Source # 119726 Other Sources
Entered by Matt Vernon
Checksums ffp , flac-md5
Disc Counts 0 / 3
Media Size Compressed: 1.39 GB (1488438807 bytes)
Date Circulated
Date Added
04/03/2012
04/03/2012
Source Summary flac16; FOB 3 mic blend taped by John Hance; FOB>AMC>DAT>CD>EAC>TLH>FLAC; extracted and flac encoded by Michale Turi 
  Archive
Source Information - Download Text | Download Zip
Grateful Dead
Spetember 6, 1980
Maine State Fairgrounds
Lewiston, MN

FOB 3 mic blend taped by John Hance

FOB>AMC>DAT>CD>EAC>TLH>FLAC

extracted and flac encoded by Michale Turi
________________________________________________________________________________________

--Set 1--
101-d1t01 - tuning -> Alabama Getaway ->
102-d1t02 - Greatest Story Ever Told
103-d1t03 - Sugaree
104-d1t04 - Me & My Uncle ->
105-d1t05 - Mexicali Blues
106-d1t06 - Tennessee Jed
107-d1t07 - Feel Like a Stranger
108-d1t08 - Friend of the Devil
109-d2t01 - Far From Me
110-d2t02 - L/ittle Red Rooster
111-d2t03 - China Cat Sunflower ->
112-d2t04 - I Know You Rider ->
113-d2t05 - The Promised Land

--Set 2--
201-d2t06 - tuning -> Shakedown Street ->
202-d2t07 - /Lost Sailor ->
203-d2t08 - Saint of Circumstance
204-d2t09 - Althea
205-d3t01 - Playing in the Band ->
206-d3t02 - Uncle John's Band >>>
207-d3t03 - //Drums ->
208-d3t04 - Space ->
209-d3t05 - Not Fade Away ->
210-d3t06 - The Wheel ->
211-d3t07 - Uncle John's Band reprise ->
212-d3t08 - Playin' reprise ->
213-d3t09 - Sugar Magnolia

--Encore--
214-d3t10 - One More Saturday Night ->
215-d3t11 - Brokedown Palace
________________________________________________________________________________________

Notes:
The CD's for this show were received in trade several years back by Michael Turi.
This source however seems to have not made it into circulation. This is an excellent
FOB recording, however specifics on the mics and deck used by John Hance are not
available.

Known Flaws:
-There is significant dead air between many non-sequential tracks. Tracks
were cut in the middle of these segments causing the dead spaces to end one track and
begin the next.
-In several places the recorder was abrubtly paused between tracks, no music was lost.
-After the first few notes of Little Red Rooster the recorder was briefly paused,
a couple of seconds of music are lost.
-There is a brief cut in the transition between Shakedown Street and Lost Sailor.
-The very ending of Uncle John's Band is faded out.
-Several minutes of Drums is missing.

Tagging notes:
Show information is embedded within the header of each flac file.
It will display on any player capable of directly playing flac files.
If converted to wav during processing, all tags will be stripped,
however audio data will remain unaffected.
If you must transcode to a lossy format, do so directly Flac > Lossy.
Use ffp to validate audio integrity.
Md5 values will change if tagging is altered.
B. Proctor 4-03-12
________________________________________________________________________________________

    length     expanded size    cdr  WAVE problems  fmt   ratio  filename
     7:48.24       82611692 B   ---   --   ---xx   flac  0.6751  gd80-09-06.d1t01.flac
     5:09.33       54585260 B   ---   --   ---xx   flac  0.6868  gd80-09-06.d1t02.flac
    15:29.34      163955612 B   ---   --   ---xx   flac  0.6864  gd80-09-06.d1t03.flac
     3:37.21       38328236 B   ---   --   ---xx   flac  0.6869  gd80-09-06.d1t04.flac
     5:08.31       54404156 B   ---   --   ---xx   flac  0.6945  gd80-09-06.d1t05.flac
     9:04.27       96025148 B   ---   --   ---xx   flac  0.6994  gd80-09-06.d1t06.flac
    13:33.71      143580236 B   ---   --   ---xx   flac  0.6954  gd80-09-06.d1t07.flac
     9:33.49      101192492 B   ---   --   ---xx   flac  0.6896  gd80-09-06.d1t08.flac
     4:49.18       51021980 B   ---   --   ---xx   flac  0.6989  gd80-09-06.d2t01.flac
     9:26.13       99873020 B   ---   --   ---xx   flac  0.6959  gd80-09-06.d2t02.flac
     6:11.51       65564396 B   ---   --   ---xx   flac  0.7146  gd80-09-06.d2t03.flac
     5:22.25       56859644 B   ---   --   ---xx   flac  0.7356  gd80-09-06.d2t04.flac
     4:16.53       45283100 B   ---   --   ---xx   flac  0.7247  gd80-09-06.d2t05.flac
    13:04.15      138332924 B   ---   --   ---xx   flac  0.7179  gd80-09-06.d2t06.flac
     5:55.04       62631452 B   ---   --   ---xx   flac  0.7126  gd80-09-06.d2t07.flac
     6:15.44       66253532 B   ---   --   ---xx   flac  0.7166  gd80-09-06.d2t08.flac
     8:53.11       94047116 B   ---   --   ---xx   flac  0.6774  gd80-09-06.d2t09.flac
    13:18.62      140913068 B   ---   --   ---xx   flac  0.6836  gd80-09-06.d3t01.flac
     7:14.05       76569404 B   ---   --   ---xx   flac  0.7282  gd80-09-06.d3t02.flac
     4:19.60       45828764 B   ---   --   ---xx   flac  0.6477  gd80-09-06.d3t03.flac
     4:48.58       50939660 B   ---   --   ---xx   flac  0.6794  gd80-09-06.d3t04.flac
     6:33.37       69412268 B   ---   --   ---xx   flac  0.7140  gd80-09-06.d3t05.flac
     5:19.10       56295164 B   ---   --   ---xx   flac  0.7177  gd80-09-06.d3t06.flac
     3:21.12       35484668 B   ---   --   ---xx   flac  0.7245  gd80-09-06.d3t07.flac
     2:54.15       30728924 B   ---   --   ---xx   flac  0.7376  gd80-09-06.d3t08.flac
     9:36.04      101615852 B   ---   --   ---xx   flac  0.7571  gd80-09-06.d3t09.flac
     5:03.34       53529212 B   ---   --   ---xx   flac  0.6476  gd80-09-06.d3t10.flac
     5:15.36       55650716 B   ---   --   ---xx   flac  0.6037  gd80-09-06.d3t11.flac
   201:23.32     2131517696 B                            0.6983  (28 files)
Show Checksums
ffp
gd80-09-06.d1t01.flac:360a5a41dd6ddb2fde8201e15f56826b
gd80-09-06.d1t02.flac:7c50d3ddf1697a9bdbb439a97e2a5ece
gd80-09-06.d1t03.flac:6b1a22d800c041b56f2744fa0297737a
gd80-09-06.d1t04.flac:f7d36e8288b31900ddcbe2bfd3854db7
gd80-09-06.d1t05.flac:ea10d29b1d7bed4e58c18ec98206d3cd
gd80-09-06.d1t06.flac:5d010b52aae6f6ecb964b427876b4b17
gd80-09-06.d1t07.flac:3ae145598df06260db7a531c960931e7
gd80-09-06.d1t08.flac:e4736956adf57d0675987fb86ddaba88
gd80-09-06.d2t01.flac:c55efb1249ab5d5b9cc66009892505a5
gd80-09-06.d2t02.flac:2b76b8ed0e59f4fb35327052b9de894c
gd80-09-06.d2t03.flac:bbdb18b67eb654ddc7587ae06c3a0cbf
gd80-09-06.d2t04.flac:4ffb19a32bd94a90dd3fa95d505b6d60
gd80-09-06.d2t05.flac:3f560d4710af4f9227c33c014ba96b26
gd80-09-06.d2t06.flac:366e7a66d5034359349b0cecfc767aca
gd80-09-06.d2t07.flac:1fa61b7a6e97e75d877c4d33fce10451
gd80-09-06.d2t08.flac:3e0e821fc072b90ec255117f433db8e9
gd80-09-06.d2t09.flac:1205597f8633159903eb33400729649e
gd80-09-06.d3t01.flac:9bf207a88e8d7bb125f1823e9e8f65a5
gd80-09-06.d3t02.flac:7ed9dd4b56160689c454edd790516d2f
gd80-09-06.d3t03.flac:f1d09bb4b6a4f37d1f53c0f1d42d0a67
gd80-09-06.d3t04.flac:072d54e825a6f5f27b05f9ef9f2b35fc
gd80-09-06.d3t05.flac:faab9658f7bcda6685c9c859ef690bb5
gd80-09-06.d3t06.flac:d66af149fd2d05f0b809ef3b07104eff
gd80-09-06.d3t07.flac:831fd6224156eddf96b6f92294d47fb5
gd80-09-06.d3t08.flac:fc12c39dca428a8092d8eb4440f9ab2b
gd80-09-06.d3t09.flac:f05fed494c78bff000301c3002bf3be3
gd80-09-06.d3t10.flac:bfaa75b9f57ceed793c77dc49e026ff5
gd80-09-06.d3t11.flac:722e88832450dd30639b68e2d3a2cf80
flac-md5
7a04f0c84f2c8e7927bcf871c73078f7 *gd80-09-06.d1t01.flac
5e8d14fcc395bde057f33220a0f7c9b1 *gd80-09-06.d1t02.flac
1ba29dc88e57f586ebae4bd5fc55f52d *gd80-09-06.d1t03.flac
e44cb26e825961c7a387513a0e436c57 *gd80-09-06.d1t04.flac
56fecd1d266936cfa596d0db2fe14ccc *gd80-09-06.d1t05.flac
047d8f20d450f66a5631ff9d974b3dfa *gd80-09-06.d1t06.flac
51815c51610d8f856bdac3ca3bfd7e89 *gd80-09-06.d1t07.flac
745f861ff8658e493c79e75755738be9 *gd80-09-06.d1t08.flac
77f66a7ffe63c385555aca37a6b7a258 *gd80-09-06.d2t01.flac
d4dc2c45f1887fdb808df779146dfa46 *gd80-09-06.d2t02.flac
c97ebb4627c4e000207c417510b5d3fe *gd80-09-06.d2t03.flac
5988ab7c2c7f3ef60e6db173d4d2231e *gd80-09-06.d2t04.flac
ffc4822b1a88046891759203b415ccd4 *gd80-09-06.d2t05.flac
540a1d67962d2c869de0f9852ea0505a *gd80-09-06.d2t06.flac
d0e526a4ddf9e53e54107ff63915fac4 *gd80-09-06.d2t07.flac
2a4f63c5f8272e73c4208f5f1c65ba83 *gd80-09-06.d2t08.flac
a56cdaf2a4d10f8f57d1a92f7ca35ffa *gd80-09-06.d2t09.flac
96224d806247ed6ed76bbd2b48f1404b *gd80-09-06.d3t01.flac
05886fe56adc63ea2cba40d98ae19090 *gd80-09-06.d3t02.flac
49e4bd27a02e912ec31808b931354e49 *gd80-09-06.d3t03.flac
b7242276e3a96dfd67f2bdf149c14739 *gd80-09-06.d3t04.flac
70d892db1f55b5cba1578739112f5536 *gd80-09-06.d3t05.flac
c40863c51988bf987eed17c71c930fce *gd80-09-06.d3t06.flac
23210cd4e5fa6a7f7f95b1ab7bca2855 *gd80-09-06.d3t07.flac
3a101814865d4c4a8b04c4a0f828b18a *gd80-09-06.d3t08.flac
d65428f6e940516d57243121cdf8d93a *gd80-09-06.d3t09.flac
2ce0291d6422e2f81634c4b83844040c *gd80-09-06.d3t10.flac
fc7195a429f38c5092d82b00f6310a04 *gd80-09-06.d3t11.flac

Comments
Add Comment
Other Sources (comments)
Nak Dragon > Sony PCM r-500... (8) MAC > ? > CD > EAC > SHNv3;... (0) *Set 1 Only*... (2) Recording by Jim Wise: FOB... (1) Recording Info (Source 1):... (0) flac16; Recording... (0) flac24; Recording... (0) flac24; AUD: 2x... (2) flac16; AUD: 2x... (2) flac16; (FOB)... (0) flac24; (FOB)... (0) flac16; source: aud... (0) flac24; source: aud... (0) flac24; Recording by... (0) flac16; Recording by... (0) flac24; Source Info:... (0) flac16/48kHz; Source... (0)
Date User Comment