Browse Collections Artists Sources   Search Dates

Add Show    List Management    Help


Grateful Dead 04/23/83
Veterans' Memorial Coliseum, New Haven, CT
Comments Add Comment    Source Collectors    Add to Collection    Add to Want List    History
Source # 119741 Other Sources
Entered by Gary Field
Checksums flac-md5 , ffp
Disc Counts 0 / 0
Media Size Compressed: 2.17 GB (2329578557 bytes)
Date Circulated
Date Added
04/04/2012
04/04/2012
Source Summary flac24; AUD: 2x Beyer M-88's > Sony TC-D5M > Maxell MX-90s, set up at the end of the floor, first row in the riser, taped by Tim Friend & Joe Morrone. Transfer: MAC > Nakamichi DR-2 > Edirol FA-66 > Wavelab 2448 > CD-Wave > TLH > FLAC 2448 tagged. Transferred by Andrew F. 04/2012 
  Archive
Source Information - Download Text | Download Zip
GRATEFUL DEAD
Coliseum
New Haven CT
04-23-1983

24bit/48kHz file-set

s1t01 crowd & tuning
s1t02 Alabama Getaway >
s1t03 Greatest Story Ever Told
s1t04 Candyman
s1t05 Minglewood Blues
s1t06 Tennessee Jed
s1t07 Lazy Lightnin' > Supplication
s1t08 Peggy-O
s1t09 Far From Me
s1t10 Music Never Stopped

s2t01 Scarlet Begonias >
s2t02 Fire on the Mountain
s2t03 Lost Sailor >
s2t04 Saint of Circumstance >
s2t05 Drums >
s2t06 Space >
s2t07 The Other One >
s2t08 Wharf Rat >
s2t09 Throwing Stones >
s2t10 Not Fade Away
s2t11 crowd & tuning
s2t12 Encore: One More Saturday Night >
s2t13 Encore: Brokedown Palace

AUD: 2x Beyer M-88's > Sony TC-D5M > Maxell MX-90s, set up at the end
of the floor, first row in the riser, taped by Tim Friend & Joe Morrone.

Transfer: MAC > Nakamichi DR-2 > Edirol FA-66 > Wavelab 2448 > CD-Wave >
TLH > FLAC 2448 tagged. Transferred by Andrew F. 04/2012

Notes: P.A. system squealing (Bob's guitar) during GSET and Candyman.
ID-102044 patches, Drums 4:56 > Space 0:03 (3:46) and NFA 0:58 > 1:05.

    length     expanded size    cdr  WAVE problems  fmt   ratio  filename
     1:35.747      27575084 B   cxx   --   ---xx   flac  0.6728  gd1983-04-23s1t01.flac
     5:16.947      91280684 B   cxx   --   ---xx   flac  0.7392  gd1983-04-23s1t02.flac
     5:25.813      93834284 B   cxx   --   ---xx   flac  0.7212  gd1983-04-23s1t03.flac
     6:58.613     120560684 B   cxx   --   ---xx   flac  0.7223  gd1983-04-23s1t04.flac
     8:26.347     145827884 B   cxx   --   ---xx   flac  0.7325  gd1983-04-23s1t05.flac
     9:18.693     160903724 B   cxx   --   ---xx   flac  0.7274  gd1983-04-23s1t06.flac
    10:35.587     183049004 B   cxx   --   ---xx   flac  0.7321  gd1983-04-23s1t07.flac
     8:27.587     146185004 B   cxx   --   ---xx   flac  0.7081  gd1983-04-23s1t08.flac
     4:25.107      76350764 B   cxx   --   ---xx   flac  0.7435  gd1983-04-23s1t09.flac
     8:48.923     152329796 B   cxx   --   ---xx   flac  0.7370  gd1983-04-23s1t10.flac
    13:09.960     227508524 B   cxx   --   ---xx   flac  0.7328  gd1983-04-23s2t01.flac
    14:14.360     246055724 B   cxx   --   ---xx   flac  0.7335  gd1983-04-23s2t02.flac
     7:21.733     127219244 B   cxx   --   ---xx   flac  0.7114  gd1983-04-23s2t03.flac
     7:23.693     127783724 B   cxx   --   ---xx   flac  0.7454  gd1983-04-23s2t04.flac
     8:38.507     149329964 B   cxx   --   ---xx   flac  0.6942  gd1983-04-23s2t05.flac
     8:15.987     142844204 B   cxx   --   ---xx   flac  0.6784  gd1983-04-23s2t06.flac
    18:04.307     312280364 B   cxx   --   ---xx   flac  0.7229  gd1983-04-23s2t07.flac
     9:19.227     161057324 B   cxx   --   ---xx   flac  0.7226  gd1983-04-23s2t08.flac
     9:19.773     161214764 B   cxx   --   ---xx   flac  0.7296  gd1983-04-23s2t09.flac
     8:32.653     147644204 B   cxx   --   ---xx   flac  0.7266  gd1983-04-23s2t10.flac
     2:23.493      41326124 B   cxx   --   ---xx   flac  0.7028  gd1983-04-23s2t11.flac
     4:23.387      75855404 B   cxx   --   ---xx   flac  0.7485  gd1983-04-23s2t12.flac
     5:46.562      99809888 B   cxx   --   ---xx   flac  0.7210  gd1983-04-23s2t13.flac
   186:13.005    3217826368 B                            0.7240  (23 files)

No errors occured.
Show Checksums
flac-md5
1b12b41bed9a17f31178ab61a4823a51 *gd1983-04-23s1t01.flac
7a13c0fd1fbaf6a16db429fccd93c142 *gd1983-04-23s1t02.flac
9a914c54a806268883b7054abd85feda *gd1983-04-23s1t03.flac
41e1c6f379a488a0ba7ba740a45cd2fc *gd1983-04-23s1t04.flac
1c7ba0668012b14d95aeb51e103e83dd *gd1983-04-23s1t05.flac
2fd16e5480cb350b90896c72bd8688af *gd1983-04-23s1t06.flac
032abfb785c847b73f945d9395bdc5ca *gd1983-04-23s1t07.flac
932baf2b8b137de43a03c9023e9ae9ba *gd1983-04-23s1t08.flac
29072d0050c5836ab16831abcd1bec5f *gd1983-04-23s1t09.flac
ede74543333e70d8f260cd2531f4aae6 *gd1983-04-23s1t10.flac
c07dec5d52aa5b2e99af056c22f2f9e4 *gd1983-04-23s2t01.flac
e107a65eb57cba43a9dbee87480acf58 *gd1983-04-23s2t02.flac
465dd0da32377b1cb33268407e20c26a *gd1983-04-23s2t03.flac
2aab6e5299592f81c83b76ba05274ef5 *gd1983-04-23s2t04.flac
fb069ced3e8d72668e4565162ed83db8 *gd1983-04-23s2t05.flac
1b3602b277ab0d138b3aa118662eb525 *gd1983-04-23s2t06.flac
fe423b0761dd8f76f6b61dba76fdf2ce *gd1983-04-23s2t07.flac
f9198ac98426203f7bab94d1380a3ed4 *gd1983-04-23s2t08.flac
7f73b02ce96a6314a90e89ebf12d6f05 *gd1983-04-23s2t09.flac
e653ed6edd945ea42c5043cfd81c7501 *gd1983-04-23s2t10.flac
2053a630f2191b43320f8b0572e3df0b *gd1983-04-23s2t11.flac
d37348009058f6958c1f82d71fde8a4d *gd1983-04-23s2t12.flac
335e09d27f4eaf39bd408a8fd4ee105c *gd1983-04-23s2t13.flac
ffp
gd1983-04-23s1t01.flac:d1cde0659af4a0410f1f14dac98e95ea
gd1983-04-23s1t02.flac:4da359b64a777c02f7b7068021db9226
gd1983-04-23s1t03.flac:031200d02fa2119744ed3c8351345eb1
gd1983-04-23s1t04.flac:47498cfb5bea237edb5e81e26f6ec636
gd1983-04-23s1t05.flac:29fb3c0054715e48d3b277a2c143b0a3
gd1983-04-23s1t06.flac:1b5a0127145ac9d5d9361bf0ef5d073d
gd1983-04-23s1t07.flac:2f499e564a0e8d338e28cefb92f0b6e1
gd1983-04-23s1t08.flac:3798484c849cd9e29ccb8ba30cd05338
gd1983-04-23s1t09.flac:f3f29c159bafb0e568ff3a7073b9f247
gd1983-04-23s1t10.flac:3bfcb645e0c2d5241a1ce2b59f78265a
gd1983-04-23s2t01.flac:49be16c8997f97636ff18a509cb75d7f
gd1983-04-23s2t02.flac:f1db6cfbe914d858835ce650ba92786d
gd1983-04-23s2t03.flac:0783234312fa3a884896ccfd22215083
gd1983-04-23s2t04.flac:d09c22a712a381554f7e6df87c126f08
gd1983-04-23s2t05.flac:e223628bd8893b7ae15c6987fe3562b3
gd1983-04-23s2t06.flac:c91451850a18429fdfd80de45b5d566d
gd1983-04-23s2t07.flac:0b6c495267e37f13715df3a20084dc77
gd1983-04-23s2t08.flac:7243ecbf450a83b49a24589b2fd5381c
gd1983-04-23s2t09.flac:d9f59cf1ca4117a9961d549616a3b1b8
gd1983-04-23s2t10.flac:71b22b552a3474e1d31521c0f607ff7d
gd1983-04-23s2t11.flac:6047893f4960c35694ba411e78e8dff9
gd1983-04-23s2t12.flac:81a9b947228be2a9c3c3a92f6f4eee0f
gd1983-04-23s2t13.flac:3ee49ee55ab994c8653beac80d49c638

Comments
Add Comment
Other Sources (comments)
FOB-Sennheiser 421> Master... (0) flac16; SBD ->... (1) flac16;... (0) flac16;... (0) flac16; Nakamichi... (0) flac16; Source: 2... (1) flac16; AUD: 2x... (1) flac16; Set 2... (0) flac24; Set 2... (0) flac24; Updated... (0) flac16; Set 2 only... (1) flac16; source: aud... (0) flac24; source: aud... (0) flac16/44.1 First... (0) flac24/48 First Gen... (0)
Date User Comment
02/08/2013 nfagdtrfb text file correction: taped by Tim Friend & Joe Morrone, thanks guys!