Browse Collections Artists Sources   Search Dates

Add Show    List Management    Help


Grateful Dead 04/23/83
Veterans' Memorial Coliseum, New Haven, CT
Comments Add Comment    Source Collectors    Add to Collection    Add to Want List    History
Source # 119742 Other Sources
Entered by Gary Field
Checksums ffp , flac-md5
Disc Counts 0 / 3
Media Size Compressed: 1.12 GB (1203343551 bytes)
Date Circulated
Date Added
04/04/2012
04/04/2012
Source Summary flac16; AUD: 2x Beyer M-88's > Sony TC-D5M > Maxell MX-90s, set up at the end of the floor, first row in the riser, taped by Tim Friend & Joe Morrone. Transfer: MAC > Nakamichi DR-2 > Edirol FA-66 > Wavelab 2448 > R8Brain > CD-Wave > TLH > FLAC 1644 tagged. Transferred by Andrew F. 04/2012 
  Archive
Source Information - Download Text | Download Zip
GRATEFUL DEAD
Coliseum
New Haven CT
04-23-1983

16bit/44.1kHz file-set

s1t01 crowd & tuning
s1t02 Alabama Getaway >
s1t03 Greatest Story Ever Told
s1t04 Candyman
s1t05 Minglewood Blues
s1t06 Tennessee Jed
s1t07 Lazy Lightnin' > Supplication
s1t08 Peggy-O
s1t09 Far From Me
s1t10 Music Never Stopped

s2t01 Scarlet Begonias >
s2t02 Fire on the Mountain
s2t03 Lost Sailor >
s2t04 Saint of Circumstance >
s2t05 Drums >
s2t06 Space >
s2t07 The Other One >
s2t08 Wharf Rat >
s2t09 Throwing Stones >
s2t10 Not Fade Away
s2t11 crowd & tuning
s2t12 Encore: One More Saturday Night >
s2t13 Encore: Brokedown Palace

AUD: 2x Beyer M-88's > Sony TC-D5M > Maxell MX-90s, set up at the end
of the floor, first row in the riser, taped by Tim Friend & Joe Morrone.

Transfer: MAC > Nakamichi DR-2 > Edirol FA-66 > Wavelab 2448 > R8Brain >
CD-Wave > TLH > FLAC 1644 tagged. Transferred by Andrew F. 04/2012

Notes: P.A. system squealing (Bob's guitar) during GSET and Candyman.
ID-102044 patches, Drums 4:56 > Space 0:03 (3:46) and NFA 0:58 > 1:05.
CDR's: D1 s1t01 > s1t10, D2 s2t01 > s2t05, D3 s2t06 > s2t13.

    length     expanded size    cdr  WAVE problems  fmt   ratio  filename
     1:35.57       16892108 B   ---   --   ---xx   flac  0.5349  gd1983-04-23s1t01.flac
     5:16.70       55907084 B   ---   --   ---xx   flac  0.6342  gd1983-04-23s1t02.flac
     5:25.61       57473516 B   ---   --   ---xx   flac  0.6061  gd1983-04-23s1t03.flac
     6:58.46       73843436 B   ---   --   ---xx   flac  0.6078  gd1983-04-23s1t04.flac
     8:26.26       89319596 B   ---   --   ---xx   flac  0.6240  gd1983-04-23s1t05.flac
     9:18.54       98558252 B   ---   --   ---xx   flac  0.6159  gd1983-04-23s1t06.flac
    10:35.41      112110476 B   ---   --   ---xx   flac  0.6227  gd1983-04-23s1t07.flac
     8:27.45       89540684 B   ---   --   ---xx   flac  0.5857  gd1983-04-23s1t08.flac
     4:25.09       46767212 B   ---   --   ---xx   flac  0.6406  gd1983-04-23s1t09.flac
     8:48.69       93301532 B   ---   --   ---xx   flac  0.6316  gd1983-04-23s1t10.flac
    13:09.70      139344284 B   ---   --   ---xx   flac  0.6251  gd1983-04-23s2t01.flac
    14:14.29      150713852 B   ---   --   ---xx   flac  0.6254  gd1983-04-23s2t02.flac
     7:21.55       77921804 B   ---   --   ---xx   flac  0.5911  gd1983-04-23s2t03.flac
     7:23.52       78267548 B   ---   --   ---xx   flac  0.6447  gd1983-04-23s2t04.flac
     8:39.00       91551644 B   ---   --   ---xx   flac  0.5615  gd1983-04-23s2t05.flac
     8:15.39       87409772 B   ---   --   ---xx   flac  0.5389  gd1983-04-23s2t06.flac
    18:04.20      191264684 B   ---   --   ---xx   flac  0.6083  gd1983-04-23s2t07.flac
     9:19.19       98652332 B   ---   --   ---xx   flac  0.6085  gd1983-04-23s2t08.flac
     9:19.58       98744060 B   ---   --   ---xx   flac  0.6198  gd1983-04-23s2t09.flac
     8:32.50       90434444 B   ---   --   ---xx   flac  0.6150  gd1983-04-23s2t10.flac
     2:23.37       25312268 B   ---   --   ---xx   flac  0.5782  gd1983-04-23s2t11.flac
     4:23.30       46463804 B   ---   --   ---xx   flac  0.6500  gd1983-04-23s2t12.flac
     5:46.42       61133228 B   ---   --   ---xx   flac  0.6075  gd1983-04-23s2t13.flac
   186:13.04     1970927620 B                            0.6105  (23 files)

No errors occured.
Show Checksums
ffp
gd1983-04-23s1t01.flac:cbdf8d3242728385d2bf7c5db06828c3
gd1983-04-23s1t02.flac:5a0ada1aae41f680f8afad808b9417e1
gd1983-04-23s1t03.flac:acf35ac44419b0e5d4c21aea354ad41a
gd1983-04-23s1t04.flac:81f9f6f46402ae3d9d1da60ae5bd4706
gd1983-04-23s1t05.flac:dd617802dbe017fe52fe93a335f2ea95
gd1983-04-23s1t06.flac:84295a877628e0fdc18385ec48046f49
gd1983-04-23s1t07.flac:f1bfd9bb89482f24d89118c467daad76
gd1983-04-23s1t08.flac:1ac39315568253b4ad7211798c00ce19
gd1983-04-23s1t09.flac:b007718970fe41f03199a8f75d6c6ea4
gd1983-04-23s1t10.flac:004a7a17c348d075f0c264e966700e5b
gd1983-04-23s2t01.flac:c09289eb2624db3737480d2ce039e06a
gd1983-04-23s2t02.flac:6815f4bc1456ff37bb855942cc1f2ade
gd1983-04-23s2t03.flac:86cf3af57f1f96fe873341ac6246c165
gd1983-04-23s2t04.flac:a45a83ec165e6df172a3088ef6fe03b5
gd1983-04-23s2t05.flac:ee877c3e49aae0faa264810300e460db
gd1983-04-23s2t06.flac:b059d3c28d3452f50bf6199e34655360
gd1983-04-23s2t07.flac:5f711cc12d7abd9551ca7292967db1c0
gd1983-04-23s2t08.flac:34dee3d5280898f78eaef30fa4a21da5
gd1983-04-23s2t09.flac:11ed4a86a380c6bb4674cccd349ce971
gd1983-04-23s2t10.flac:ff01712d0679da6d48000f63f2bda939
gd1983-04-23s2t11.flac:7d4d58a25b7d1ce886d982c9f5c16ea0
gd1983-04-23s2t12.flac:6d7c988f4aaadbaa1107b96e648a7a15
gd1983-04-23s2t13.flac:cd35dfb2ee1cad9eeb62599739942135
flac-md5
385ee5ff3494aa5b6e45af3ea402ce71 *gd1983-04-23s1t01.flac
d2366a3cc4b95bae55cb85ce2b0c0b47 *gd1983-04-23s1t02.flac
7bb2f4a9b8034923e6e8efe1183fb68a *gd1983-04-23s1t03.flac
24c33db0ecd3f50665bcda9edee59467 *gd1983-04-23s1t04.flac
dca27e56621c1223b2c6475a0792558e *gd1983-04-23s1t05.flac
cff8103fa08519358898d66287585c3e *gd1983-04-23s1t06.flac
c7c20f9d7bd1d296439c25c8a5054cad *gd1983-04-23s1t07.flac
32e1798853f01db84cbccdbaced17676 *gd1983-04-23s1t08.flac
ab5044c36962086d7b88d21c77298035 *gd1983-04-23s1t09.flac
dfa9606febfecdc82496ff86ac75cee9 *gd1983-04-23s1t10.flac
6c2d01d8c6ae76472322b9d51b6a03a5 *gd1983-04-23s2t01.flac
82c30e4083ed8941bca84e981d3c7723 *gd1983-04-23s2t02.flac
354c8c3abc67c2746bb841fb548edb88 *gd1983-04-23s2t03.flac
00b6d5900d83b599c421cc80d770cfa4 *gd1983-04-23s2t04.flac
cfead908792c356fc4052c785865a51f *gd1983-04-23s2t05.flac
abe826668ca58d2aa245e24ed575fde1 *gd1983-04-23s2t06.flac
ef2f4b32f96a716475b95038405b9903 *gd1983-04-23s2t07.flac
46ba6dc537e370428ba8fb08e6515b1e *gd1983-04-23s2t08.flac
271383c030df3bacd8e9182132e64547 *gd1983-04-23s2t09.flac
3388363bd755aee936752d2e60d75e9b *gd1983-04-23s2t10.flac
54c1e37b8068f229117baeceb98b62c2 *gd1983-04-23s2t11.flac
957cb1c8521ecaa3f1fd1ce13883c472 *gd1983-04-23s2t12.flac
7922165b0d5804e95abb1acf2f47e823 *gd1983-04-23s2t13.flac

Comments
Add Comment
Other Sources (comments)
FOB-Sennheiser 421> Master... (0) flac16; SBD ->... (1) flac16;... (0) flac16;... (0) flac16; Nakamichi... (0) flac16; Source: 2... (1) flac24; AUD: 2x... (1) flac16; Set 2... (0) flac24; Set 2... (0) flac24; Updated... (0) flac16; Set 2 only... (1) flac16; source: aud... (0) flac24; source: aud... (0) flac16/44.1 First... (0) flac24/48 First Gen... (0)
Date User Comment
02/08/2013 nfagdtrfb text file correction: taped by Tim Friend & Joe Morrone, thanks guys!