Browse Collections Artists Sources   Search Dates

Add Show    List Management    Help


Quicksilver Messenger Service 02/19/71
Swing Auditorium, San Bernadino, CA
Comments Add Comment    Source Collectors    Add to Collection    Add to Want List    History
Source # 119796 Other Sources
Entered by ziko
Checksums ffp , md5
Disc Counts 0 / 0
Media Size Compressed: 668.01 MB (700456616 bytes)
Date Circulated
Date Added
04/10/2012
04/09/2012
Source Summary Source: Mono Soundboard (provided by Tycobrahe Sound Company) > unknown tape deck > 1/4 track 7.5 ips Master Reels (Scotch 503 Dynarange) From the collection of Harvey Kaslow and Craig Todd Transfer: Master Reels > Technics RS-1500-US > Zoom H4n > wav 16/48 Transferred by Craig Todd Lineage: wav 16/48 > Adobe Audition 1.5 > Wavelab 6 (with iZotope Ozone 5 Advanced) > iZotope RX 2 Advanced > CD Wave > TLH > Flac 16 
Source Information - Download Text | Download Zip
Quicksilver Messenger Service
Swing Auditorium,
Orange Show Fairgrounds,
San Bernadino, CA
02/19/1971


Source: Mono Soundboard (provided by Tycobrahe Sound Company) > unknown tape deck >
            1/4 track 7.5 ips Master Reels (Scotch 503 Dynarange)
            From the collection of Harvey Kaslow and Craig Todd
Transfer: Master Reels > Technics RS-1500-US > Zoom H4n > wav 16/48
               Transferred by Craig Todd
Lineage: wav 16/48 > Adobe Audition 1.5 > Wavelab 6 (with iZotope Ozone 5 Advanced) >
             iZotope RX 2 Advanced > CD Wave > TLH > Flac 16



01   Fresh Air
02   Nowhere To Run
03   Dr. Feelgood
04   Fields Of Love
05   Tell The Truth
06   Call On Me
07   Road Runner
08   Mojo
09   What About Me
10   Ain't That A Shame


Dino Valente - guitar, vocals
Gary Duncan - guitar, vocals
David Freiberg - bass, vocals
Mark Naftalin - keyboards
Greg Elmore - drums



Also played: Fleetwood Mac, Michael Bloomfield And Friends, and Robert Savage Group

Neither Harvey nor Craig know who recorded this or what deck was used.  Many thanks to them for making this new transfer available to me.


edited and mastered
SIRMick
April 2012


shntool output:

    length     expanded size    cdr  WAVE problems  fmt   ratio  filename
     5:55.20       62669084 B   ---   --   ---xx   flac  0.3599  qms1971-02-19t01.flac
     5:40.67       60133628 B   ---   --   ---xx   flac  0.3595  qms1971-02-19t02.flac
     5:13.10       55236764 B   ---   --   ---xx   flac  0.3747  qms1971-02-19t03.flac
     3:21.69       35618732 B   ---   --   ---xx   flac  0.3599  qms1971-02-19t04.flac
     7:22.68       78128780 B   ---   --   ---xx   flac  0.3844  qms1971-02-19t05.flac
    11:04.24      117186092 B   ---   --   ---xx   flac  0.3854  qms1971-02-19t06.flac
     4:14.53       44930300 B   ---   --   ---xx   flac  0.3957  qms1971-02-19t07.flac
     6:43.48       71202140 B   ---   --   ---xx   flac  0.3825  qms1971-02-19t08.flac
     8:02.60       85165964 B   ---   --   ---xx   flac  0.3903  qms1971-02-19t09.flac
     8:31.19       90185132 B   ---   --   ---xx   flac  0.3992  qms1971-02-19t10.flac
    66:10.63      700456616 B                            0.3814  (10 files)

flac fingerprints:

qms1971-02-19t01.flac:9e3c4ce286fc5b69c76ebd21679751c3
qms1971-02-19t02.flac:83d2fbffdcf992ec01f2d0228ce7e1b6
qms1971-02-19t03.flac:808ec578740d58bcf1e3912a51cb3978
qms1971-02-19t04.flac:903eff93023c2deafeac395f12dbb47e
qms1971-02-19t05.flac:bac5bee17bae7d53d6e405c14ca0c896
qms1971-02-19t06.flac:84dd7e87cbb436d1ac542b064b4f70cc
qms1971-02-19t07.flac:7fe35b61495d83dbd9087771c13d284c
qms1971-02-19t08.flac:e9f223aaf5ab463db7024f6d3044d1cd
qms1971-02-19t09.flac:e3fa1094cb95b91e7da02a229a67304f
qms1971-02-19t10.flac:a31cdd48555b499077d1fc142a7c2f8a
Show Checksums
ffp
qms1971-02-19t01.flac:9e3c4ce286fc5b69c76ebd21679751c3
qms1971-02-19t02.flac:83d2fbffdcf992ec01f2d0228ce7e1b6
qms1971-02-19t03.flac:808ec578740d58bcf1e3912a51cb3978
qms1971-02-19t04.flac:903eff93023c2deafeac395f12dbb47e
qms1971-02-19t05.flac:bac5bee17bae7d53d6e405c14ca0c896
qms1971-02-19t06.flac:84dd7e87cbb436d1ac542b064b4f70cc
qms1971-02-19t07.flac:7fe35b61495d83dbd9087771c13d284c
qms1971-02-19t08.flac:e9f223aaf5ab463db7024f6d3044d1cd
qms1971-02-19t09.flac:e3fa1094cb95b91e7da02a229a67304f
qms1971-02-19t10.flac:a31cdd48555b499077d1fc142a7c2f8a
md5
4a853a5762fd83b49db5d6000a934f3d *qms1971-02-19t01.flac
3ba50e08f56d64d5ef6ee3988f643138 *qms1971-02-19t02.flac
721f5940651c9a68c96ab4432cc7ad51 *qms1971-02-19t03.flac
dc7476e36105b5273112a16bfbe95e5a *qms1971-02-19t04.flac
0edba2142d0978d59c8b106b7b0e1f65 *qms1971-02-19t05.flac
47078b902dd37e87a11ffbd16bab243a *qms1971-02-19t06.flac
0a57fcb34150c9f76f32805c41d163ec *qms1971-02-19t07.flac
8800cc0a68cc117e4a00695319f8df73 *qms1971-02-19t08.flac
18b4166a701f0ebfd9869a4c1ee6a231 *qms1971-02-19t09.flac
065672b05d2b4368a8891dc975c5da6b *qms1971-02-19t10.flac

Comments
Add Comment
Date User Comment