Browse Collections Artists Sources   Search Dates

Add Show    List Management    Help


Grateful Dead 04/22/83
Veterans' Memorial Coliseum, New Haven, CT
Comments Add Comment    Source Collectors    Add to Collection    Add to Want List    History
Source # 119986 Other Sources
Entered by Gary Field
Checksums flac-md5 , ffp
Disc Counts 0 / 0
Media Size Compressed: 3.03 GB (3251875366 bytes)
Date Circulated
Date Added
04/28/2012
04/28/2012
Source Summary flac24; AUD: 2x Beyer M-88's > Sony TC-D5M > Maxell MX-90s, set up at the end of the floor, fifteen rows up in the riser, taped by Tim Friend & Joe Morrone. Transfer: MAC > Nakamichi DR-2 > Edirol FA-66 > Wavelab 2448 > CD-Wave > TLH > FLAC 2448 tagged. Transferred by Andrew F. 04/2012 
  Archive
Source Information - Download Text | Download Zip
GRATEFUL DEAD
Coliseum
New Haven CT
04-22-1983

24bit/48kHz file-set

s1t01 crowd & tuning
s1t02 Feel Like a Stranger
s1t03 Birdsong >
s1t04 C.C. Rider
s1t05 Row Jimmy
s1t06 Mama Tried >
s1t07 Mexicali Blues
s1t08 Cold Rain & Snow >
s1t09 Brother Esau >
s1t10 Deal

s2t01 crowd & tuning
s2t02 Help on the Way > Slipknot >
s2t03 Franklin's Tower >
s2t04 Samson & Delilah
s2t05 crowd & tuning
s2t06 Ship of Fools >
s2t07 Women are Smarter >
s2t08 Jam >
s2t09 Drums >
s2t10 Space >
s2t11 Truckin' >
s2t12 Spoonful >
s2t13 Stella Blue >
s2t14 Around & Around >
s2t15 Good Lovin'
s2t16 Encore: It's All Over Now Baby Blue

AUD: 2x Beyer M-88's > Sony TC-D5M > Maxell MX-90s, set up at the end
of the floor, fifteen rows up in the riser, taped by Tim Friend & Joe Morrone.

Transfer: MAC > Nakamichi DR-2 > Edirol FA-66 > Wavelab 2448 > CD-Wave >
TLH > FLAC 2448 tagged. Transferred by Andrew F. 04/2012

Patches as follows:
- AUD 1st-gen cassette, tuning (before Stranger) 1:48 > 4:42.
- Long piece of ID-21442, Jam 0:03 > Drums 5:53 (11:08 overall).
- Small bit of ID-88088, Drums 5:08 > 5:35.

    length     expanded size    cdr  WAVE problems  fmt   ratio  filename
     6:35.187     113813804 B   cxx   --   ---xx   flac  0.6863  gd1983-04-22s1t01.flac
     9:31.667     164640044 B   cxx   --   ---xx   flac  0.7142  gd1983-04-22s1t02.flac
    10:57.440     189342764 B   cxx   --   ---xx   flac  0.7096  gd1983-04-22s1t03.flac
     9:26.080     163031084 B   cxx   --   ---xx   flac  0.7174  gd1983-04-22s1t04.flac
    11:35.693     200359724 B   cxx   --   ---xx   flac  0.7125  gd1983-04-22s1t05.flac
     3:22.760      58394924 B   cxx   --   ---xx   flac  0.7232  gd1983-04-22s1t06.flac
     6:04.733     105043244 B   cxx   --   ---xx   flac  0.7218  gd1983-04-22s1t07.flac
     6:20.480     109578284 B   cxx   --   ---xx   flac  0.7302  gd1983-04-22s1t08.flac
     6:10.440     106686764 B   cxx   --   ---xx   flac  0.7196  gd1983-04-22s1t09.flac
     9:03.587     156553058 B   cxx   --   ---xx   flac  0.7280  gd1983-04-22s1t10.flac
     0:54.280      15632684 B   cxx   --   ---xx   flac  0.6709  gd1983-04-22s2t01.flac
     8:49.413     152471084 B   cxx   --   ---xx   flac  0.7205  gd1983-04-22s2t02.flac
    11:37.933     201004844 B   cxx   --   ---xx   flac  0.7294  gd1983-04-22s2t03.flac
     8:45.520     151349804 B   cxx   --   ---xx   flac  0.7298  gd1983-04-22s2t04.flac
     1:15.413      21719084 B   cxx   --   ---xx   flac  0.6650  gd1983-04-22s2t05.flac
     7:10.813     124074284 B   cxx   --   ---xx   flac  0.7110  gd1983-04-22s2t06.flac
     6:48.867     117753644 B   cxx   --   ---xx   flac  0.7361  gd1983-04-22s2t07.flac
     5:18.053      91599404 B   cxx   --   ---xx   flac  0.7184  gd1983-04-22s2t08.flac
     5:52.600     101548844 B   cxx   --   ---xx   flac  0.7070  gd1983-04-22s2t09.flac
    12:48.067     221203244 B   cxx   --   ---xx   flac  0.6743  gd1983-04-22s2t10.flac
     7:08.680     123459884 B   cxx   --   ---xx   flac  0.7310  gd1983-04-22s2t11.flac
     2:37.840      45457964 B   cxx   --   ---xx   flac  0.7138  gd1983-04-22s2t12.flac
     9:26.267     163084844 B   cxx   --   ---xx   flac  0.7047  gd1983-04-22s2t13.flac
     3:50.387      66351404 B   cxx   --   ---xx   flac  0.7220  gd1983-04-22s2t14.flac
     9:03.013     156387884 B   cxx   --   ---xx   flac  0.7273  gd1983-04-22s2t15.flac
     7:36.016     131332772 B   cxx   --   ---xx   flac  0.7150  gd1983-04-22s2t16.flac
   188:11.230    3251875366 B                            0.7151  (26 files)

No errors occured.
Show Checksums
flac-md5
6bac33c1f0bc139e9e6d65e73edcd5d9 *gd1983-04-22s1t01.flac
54dd893b73d9b5b22e64f285ecdfa97f *gd1983-04-22s1t02.flac
4d44fdc674ca1f7b3adb81d5ab9193a5 *gd1983-04-22s1t03.flac
e5cf386c8a3bca8267f181b0ecaa18be *gd1983-04-22s1t04.flac
e12ae165c0445bc215bd27313d3d9875 *gd1983-04-22s1t05.flac
993cdd8a9f00535b81d2d8de35e75619 *gd1983-04-22s1t06.flac
a75c38fe4254351b00092ac553a22216 *gd1983-04-22s1t07.flac
9df0b9555208887d8fdd5f91b7fd70b5 *gd1983-04-22s1t08.flac
c298cf1c21ac75d502d173603a29e587 *gd1983-04-22s1t09.flac
053237647843f5c190f6747142e30804 *gd1983-04-22s1t10.flac
0a42cc94dedcac9230fe109af625fb92 *gd1983-04-22s2t01.flac
6bf97a39aa6ce3341b5d1185afe87112 *gd1983-04-22s2t02.flac
e63b2b3c06aac47d96db95c3623e1e3c *gd1983-04-22s2t03.flac
e2068373e0eb4310ad2ae5b1eef8ab32 *gd1983-04-22s2t04.flac
55600eae73912435cb15e6c6faab852c *gd1983-04-22s2t05.flac
187e6f6585833912c88c81b0d60eef23 *gd1983-04-22s2t06.flac
fc37be7d60437e1c02f660a5e1679c51 *gd1983-04-22s2t07.flac
893aa7b3a30a02361c90b57a420240a0 *gd1983-04-22s2t08.flac
86229d4778a145cfb2d79e8a11d0f356 *gd1983-04-22s2t09.flac
4aadbe74853c1e32f39a58415a6e5be9 *gd1983-04-22s2t10.flac
4f65a66bccc16fb7140756120cb903e7 *gd1983-04-22s2t11.flac
d77b9eb09849699e43c9c4cd5430ebd5 *gd1983-04-22s2t12.flac
847c762a57a86c7ba8f6b8ba50226a74 *gd1983-04-22s2t13.flac
4e5b4a2c673e8560f303be2a1d1f1849 *gd1983-04-22s2t14.flac
ca0c076aceb74beb248e22be3b76db7c *gd1983-04-22s2t15.flac
72147f5559949278bb36b828165e13f3 *gd1983-04-22s2t16.flac
ffp
gd1983-04-22s1t01.flac:bc4c59f4f6c8e2bf7bce31106d3de859
gd1983-04-22s1t02.flac:35e42653a244af8cbed9ee338f2204dc
gd1983-04-22s1t03.flac:611ebe5795a69865109d15d410b29f4e
gd1983-04-22s1t04.flac:72696a0f333ac538d5e82f7ba56a71ae
gd1983-04-22s1t05.flac:0598de2d8bce967685f7b306f817898c
gd1983-04-22s1t06.flac:bdc9a3cdeae0f8dd0fb0848fb243e43d
gd1983-04-22s1t07.flac:6c22e46bbc9e765a35577d89b6678e46
gd1983-04-22s1t08.flac:d2c7e405ad81647a3bd85d7c78c69b19
gd1983-04-22s1t09.flac:816c49a2930643bc1be7ae06d7a8d7d2
gd1983-04-22s1t10.flac:4ea49f2810739064291d638bd15889bc
gd1983-04-22s2t01.flac:9655b96bdcf3b9bc05e9757226922dbe
gd1983-04-22s2t02.flac:3cc8e6a9657d714b8e739dae6a3afeac
gd1983-04-22s2t03.flac:bb580351189149e3a3e9f199815ece4b
gd1983-04-22s2t04.flac:29cd0ed852e9c100ac7d87f3cb4a7bed
gd1983-04-22s2t05.flac:1569c8a12e0a7f3bcaf683276a7c44dc
gd1983-04-22s2t06.flac:61e9fe1156ebc6f5ad24f8bc2b9df7f0
gd1983-04-22s2t07.flac:7fe3f4e0bab1612cc9c91b48525aee7a
gd1983-04-22s2t08.flac:1534aed40a4321c1cd9c245cfbbd9f5d
gd1983-04-22s2t09.flac:efa76a441f625b24675f41944f0f0165
gd1983-04-22s2t10.flac:c37de36374248b2205a64889a76540b4
gd1983-04-22s2t11.flac:15f1ff91bd9c987a53350a8347ace971
gd1983-04-22s2t12.flac:3bf9f43bd9c04024476cc849d4ee3915
gd1983-04-22s2t13.flac:ea37609bc23c7edf8cd50d9ca4ca2fc6
gd1983-04-22s2t14.flac:243b78056fda5848ab251f3988678837
gd1983-04-22s2t15.flac:cc650355f0af52d5dd58dbe7d36b5001
gd1983-04-22s2t16.flac:36625b547aef21ce853df989c608eb5e

Comments
Add Comment
Other Sources (comments)
FOB-Sennheiser 421> Master... (1) Barry Glassberg FOB AUDMC... (0) flac16;... (0) flac16; Nakamichi... (0) flac16; Source: 2... (0) flac16; AUD: 2x... (1) flac24; Updated... (0) flac16; 1st Gen AUD... (0) flac16; source: aud... (0) flac24; source: aud... (0) flac16/44.1 First... (0) flac24/48 First... (0)
Date User Comment
02/08/2013 nfagdtrfb text file correction: taped by Tim Friend & Joe Morrone, thanks guys!