Browse Collections Artists Sources   Search Dates

Add Show    List Management    Help


Grateful Dead 04/22/83
Veterans' Memorial Coliseum, New Haven, CT
Comments Add Comment    Source Collectors    Add to Collection    Add to Want List    History
Source # 119987 Other Sources
Entered by Gary Field
Checksums flac-md5 , ffp
Disc Counts 0 / 0
Media Size Compressed: 1.85 GB (1991778232 bytes)
Date Circulated
Date Added
04/28/2012
04/28/2012
Source Summary flac16; AUD: 2x Beyer M-88's > Sony TC-D5M > Maxell MX-90s, set up at the end of the floor, fifteen rows up in the riser, taped by Tim Friend & Joe Morrone. Transfer: MAC > Nakamichi DR-2 > Edirol FA-66 > Wavelab 2448 > R8Brain > CD-Wave > TLH > FLAC 1644 tagged. Transferred by Andrew F. 04/2012 
  Archive
Source Information - Download Text | Download Zip
GRATEFUL DEAD
Coliseum
New Haven CT
04-22-1983

16bit/44.1kHz file-set

s1t01 crowd & tuning
s1t02 Feel Like a Stranger
s1t03 Birdsong >
s1t04 C.C. Rider
s1t05 Row Jimmy
s1t06 Mama Tried >
s1t07 Mexicali Blues
s1t08 Cold Rain & Snow >
s1t09 Brother Esau >
s1t10 Deal

s2t01 crowd & tuning
s2t02 Help on the Way > Slipknot >
s2t03 Franklin's Tower >
s2t04 Samson & Delilah
s2t05 crowd & tuning
s2t06 Ship of Fools >
s2t07 Women are Smarter >
s2t08 Jam >
s2t09 Drums >
s2t10 Space >
s2t11 Truckin' >
s2t12 Spoonful >
s2t13 Stella Blue >
s2t14 Around & Around >
s2t15 Good Lovin'
s2t16 Encore: It's All Over Now Baby Blue

AUD: 2x Beyer M-88's > Sony TC-D5M > Maxell MX-90s, set up at the end
of the floor, fifteen rows up in the riser, taped by Tim Friend & Joe Morrone.

Transfer: MAC > Nakamichi DR-2 > Edirol FA-66 > Wavelab 2448 > R8Brain >
CD-Wave > TLH > FLAC 1644 tagged. Transferred by Andrew F. 04/2012

Patches as follows:
- AUD 1st-gen cassette, tuning (before Stranger) 1:48 > 4:42.
- Long piece of ID-21442, Jam 0:03 > Drums 5:53 (11:08 overall).
- Small bit of ID-88088, Drums 5:08 > 5:35.

CDRs: D1 s1t01 > s1t10, D2 s2t01 > s2t04, D3 s2t05 > s2t16.

    length     expanded size    cdr  WAVE problems  fmt   ratio  filename
     6:35.14       69710972 B   ---   --   ---xx   flac  0.5518  gd1983-04-22s1t01.flac
     9:31.50      100842044 B   ---   --   ---xx   flac  0.5935  gd1983-04-22s1t02.flac
    10:57.33      115972460 B   ---   --   ---xx   flac  0.5869  gd1983-04-22s1t03.flac
     9:26.06       99856556 B   ---   --   ---xx   flac  0.5987  gd1983-04-22s1t04.flac
    11:35.52      122720348 B   ---   --   ---xx   flac  0.5919  gd1983-04-22s1t05.flac
     3:22.57       35766908 B   ---   --   ---xx   flac  0.6074  gd1983-04-22s1t06.flac
     6:04.56       64341356 B   ---   --   ---xx   flac  0.6062  gd1983-04-22s1t07.flac
     6:20.31       67104956 B   ---   --   ---xx   flac  0.6187  gd1983-04-22s1t08.flac
     6:10.37       65355068 B   ---   --   ---xx   flac  0.6031  gd1983-04-22s1t09.flac
     9:03.45       95891084 B   ---   --   ---xx   flac  0.6157  gd1983-04-22s1t10.flac
     0:54.21        9575036 B   ---   --   ---xx   flac  0.5331  gd1983-04-22s2t01.flac
     8:49.31       93388556 B   ---   --   ---xx   flac  0.6036  gd1983-04-22s2t02.flac
    11:37.70      123115484 B   ---   --   ---xx   flac  0.6181  gd1983-04-22s2t03.flac
     8:45.39       92701772 B   ---   --   ---xx   flac  0.6186  gd1983-04-22s2t04.flac
     1:15.32       13305308 B   ---   --   ---xx   flac  0.5178  gd1983-04-22s2t05.flac
     7:10.60       75993164 B   ---   --   ---xx   flac  0.5897  gd1983-04-22s2t06.flac
     6:48.65       72124124 B   ---   --   ---xx   flac  0.6292  gd1983-04-22s2t07.flac
     5:17.24       55975292 B   ---   --   ---xx   flac  0.5950  gd1983-04-22s2t08.flac
     5:53.24       62325692 B   ---   --   ---xx   flac  0.5769  gd1983-04-22s2t09.flac
    12:48.06      135489356 B   ---   --   ---xx   flac  0.5311  gd1983-04-22s2t10.flac
     7:08.50       75616844 B   ---   --   ---xx   flac  0.6205  gd1983-04-22s2t11.flac
     2:37.64       27845372 B   ---   --   ---xx   flac  0.5947  gd1983-04-22s2t12.flac
     9:26.19       99887132 B   ---   --   ---xx   flac  0.5795  gd1983-04-22s2t13.flac
     3:50.30       40642604 B   ---   --   ---xx   flac  0.6063  gd1983-04-22s2t14.flac
     9:03.01       95787596 B   ---   --   ---xx   flac  0.6148  gd1983-04-22s2t15.flac
     7:36.02       80443148 B   ---   --   ---xx   flac  0.5966  gd1983-04-22s2t16.flac
   188:11.19     1991778232 B                            0.5953  (26 files)

No errors occured.
Show Checksums
flac-md5
32adab0761924bc383dd37578a5d1cd0 *gd1983-04-22s1t01.flac
edc2428e4c3cfde4c25d303e0d6c5789 *gd1983-04-22s1t02.flac
bd7d4e1553811eba2952559962a32f9b *gd1983-04-22s1t03.flac
015e712d46d941edbed2333e58206ca5 *gd1983-04-22s1t04.flac
a91e4cf33d78b875be6803c5b1f2a265 *gd1983-04-22s1t05.flac
509d8e889b3a498f7fe267cf7d2edcfe *gd1983-04-22s1t06.flac
fb70893f06343fa4911b3688b175c11f *gd1983-04-22s1t07.flac
c6f7e31e9f1da2a566ecef416e168d45 *gd1983-04-22s1t08.flac
0d90477d31a0bd43ab9c092fd9514a5e *gd1983-04-22s1t09.flac
bf0894d162f44d395e651cee5c0123bc *gd1983-04-22s1t10.flac
5c3f9bc9839268c9de48a4ce5ef938e0 *gd1983-04-22s2t01.flac
80b3ec1ea5c2c4887519d91842f97eb5 *gd1983-04-22s2t02.flac
9969fdcb637c72af3d8ca01e227bf57a *gd1983-04-22s2t03.flac
0f6dabb65ed86ce8ec9b30c4254bd51e *gd1983-04-22s2t04.flac
7567becb4e11a04e1eb488518dc7ac5d *gd1983-04-22s2t05.flac
cd6b1ddfe3106f10616c5a74be67d79b *gd1983-04-22s2t06.flac
5caf660305688cf351c004725e7d1717 *gd1983-04-22s2t07.flac
2ed0785c51820bd4c3a61bd67e622595 *gd1983-04-22s2t08.flac
e18bfe88f0e36df58321da7b11b2fd51 *gd1983-04-22s2t09.flac
02a38090f846294fcf5b86abde5facdf *gd1983-04-22s2t10.flac
070b50ba5353077a3af5faea9c37b1dd *gd1983-04-22s2t11.flac
14690d0bf26de4f6a6c2d4068564e316 *gd1983-04-22s2t12.flac
f5ef0391aba93c7c202cefa84af84aee *gd1983-04-22s2t13.flac
8c37689fca5212f9c62d446ec3ea9c1f *gd1983-04-22s2t14.flac
f4314fd627cb36a3382d8cb7dc9c61e3 *gd1983-04-22s2t15.flac
a96d68abf9cfbcfb08448cf97fcc6ae5 *gd1983-04-22s2t16.flac
ffp
gd1983-04-22s1t01.flac:75fef2683bfdadc14632754437f53cea
gd1983-04-22s1t02.flac:2ccdae0a3007cbd9a9802bf8ab646eaf
gd1983-04-22s1t03.flac:ec34ef3a399a39c9e6cd11cb6c3cfbd6
gd1983-04-22s1t04.flac:fc901b34ab0ad47f69037dd5945fbb84
gd1983-04-22s1t05.flac:dfd19178d47919305098b4f28699cf45
gd1983-04-22s1t06.flac:05d448548575ab9f3c25ee7c1e82eafb
gd1983-04-22s1t07.flac:9bf3667ec55965f24a112832ff6cb267
gd1983-04-22s1t08.flac:45772e3e7b9c7c1a0fb884d9c7118127
gd1983-04-22s1t09.flac:4b6050769af61fe5b00ee53a1597072b
gd1983-04-22s1t10.flac:53802bbc2043a2eb9157e9303ccecf3b
gd1983-04-22s2t01.flac:126d9d268ea8966cde2606144db5aefb
gd1983-04-22s2t02.flac:0c75eca9ff9c8b3780dfa488e9bf9957
gd1983-04-22s2t03.flac:85c5e391b3e0462043af5a3f584dd35b
gd1983-04-22s2t04.flac:8f0a8f251a52d1d139777b3d068833a6
gd1983-04-22s2t05.flac:ed22dac1a0f974dfead7315fab3333f4
gd1983-04-22s2t06.flac:9586df73c416a5d8443e54c36faaa259
gd1983-04-22s2t07.flac:02c2b7cccc624e324c412c9e660b25d1
gd1983-04-22s2t08.flac:8af4e5bd97cd932a787c83aad5cdd57a
gd1983-04-22s2t09.flac:1d18ab1d94942b19182e46df98a707d9
gd1983-04-22s2t10.flac:60ad45db722c3a99c42fd6d8d5194eba
gd1983-04-22s2t11.flac:4c7bf9e7f581187cf8be6681c5a1157f
gd1983-04-22s2t12.flac:d51bb3373166da00aa2e804903c240a4
gd1983-04-22s2t13.flac:1d80c559bf2737122132ecacff87fea2
gd1983-04-22s2t14.flac:27a1f699c9085197f66d67da4e50b41e
gd1983-04-22s2t15.flac:404dcd9b6f0bc511a232debe28474325
gd1983-04-22s2t16.flac:f771895a8e95c4da3fb72c79e14fac1e

Comments
Add Comment
Other Sources (comments)
FOB-Sennheiser 421> Master... (1) Barry Glassberg FOB AUDMC... (0) flac16;... (0) flac16; Nakamichi... (0) flac16; Source: 2... (0) flac24; AUD: 2x... (1) flac24; Updated... (0) flac16; 1st Gen AUD... (0) flac16; source: aud... (0) flac24; source: aud... (0) flac16/44.1 First... (0) flac24/48 First... (0)
Date User Comment
02/08/2013 nfagdtrfb text file correction: taped by Tim Friend & Joe Morrone, thanks guys!